  0
SECTION
  2
HEADER
  9
$ACADVER
  1
AC1015
  9
$ACADMAINTVER
 70
     6
  9
$DWGCODEPAGE
  3
ANSI_1252
  9
$INSBASE
 10
0.0
 20
0.0
 30
0.0
  9
$EXTMIN
 10
527.6491972140465
 20
821.1076525969692
 30
-0.00000001
  9
$EXTMAX
 10
7028.069390407805
 20
3857.175790059018
 30
0.00000001
  9
$LIMMIN
 10
0.0
 20
0.0
  9
$LIMMAX
 10
420.0
 20
297.0
  9
$ORTHOMODE
 70
     1
  9
$REGENMODE
 70
     1
  9
$FILLMODE
 70
     1
  9
$QTEXTMODE
 70
     0
  9
$MIRRTEXT
 70
     1
  9
$LTSCALE
 40
1.0
  9
$ATTMODE
 70
     1
  9
$TEXTSIZE
 40
2.5
  9
$TRACEWID
 40
1.0
  9
$TEXTSTYLE
  7
Standard
  9
$CLAYER
  8
Calque1
  9
$CELTYPE
  6
ByLayer
  9
$CECOLOR
 62
     5
  9
$CELTSCALE
 40
1.0
  9
$DISPSILH
 70
     0
  9
$DIMSCALE
 40
1.0
  9
$DIMASZ
 40
2.5
  9
$DIMEXO
 40
0.625
  9
$DIMDLI
 40
3.75
  9
$DIMRND
 40
0.0
  9
$DIMDLE
 40
0.0
  9
$DIMEXE
 40
1.25
  9
$DIMTP
 40
0.0
  9
$DIMTM
 40
0.0
  9
$DIMTXT
 40
10.0
  9
$DIMCEN
 40
2.5
  9
$DIMTSZ
 40
0.0
  9
$DIMTOL
 70
     0
  9
$DIMLIM
 70
     0
  9
$DIMTIH
 70
     0
  9
$DIMTOH
 70
     0
  9
$DIMSE1
 70
     0
  9
$DIMSE2
 70
     0
  9
$DIMTAD
 70
     1
  9
$DIMZIN
 70
     8
  9
$DIMBLK
  1

  9
$DIMASO
 70
     1
  9
$DIMSHO
 70
     1
  9
$DIMPOST
  1

  9
$DIMAPOST
  1

  9
$DIMALT
 70
     0
  9
$DIMALTD
 70
     3
  9
$DIMALTF
 40
0.03937007874016
  9
$DIMLFAC
 40
1.0
  9
$DIMTOFL
 70
     1
  9
$DIMTVP
 40
0.0
  9
$DIMTIX
 70
     0
  9
$DIMSOXD
 70
     0
  9
$DIMSAH
 70
     0
  9
$DIMBLK1
  1

  9
$DIMBLK2
  1

  9
$DIMSTYLE
  2
ISO-25
  9
$DIMCLRD
 70
     0
  9
$DIMCLRE
 70
     0
  9
$DIMCLRT
 70
     0
  9
$DIMTFAC
 40
1.0
  9
$DIMGAP
 40
0.625
  9
$DIMJUST
 70
     0
  9
$DIMSD1
 70
     0
  9
$DIMSD2
 70
     0
  9
$DIMTOLJ
 70
     0
  9
$DIMTZIN
 70
     8
  9
$DIMALTZ
 70
     0
  9
$DIMALTTZ
 70
     0
  9
$DIMUPT
 70
     0
  9
$DIMDEC
 70
     2
  9
$DIMTDEC
 70
     2
  9
$DIMALTU
 70
     2
  9
$DIMALTTD
 70
     3
  9
$DIMTXSTY
  7
Standard
  9
$DIMAUNIT
 70
     0
  9
$DIMADEC
 70
     0
  9
$DIMALTRND
 40
0.0
  9
$DIMAZIN
 70
     0
  9
$DIMDSEP
 70
    44
  9
$DIMATFIT
 70
     3
  9
$DIMFRAC
 70
     0
  9
$DIMLDRBLK
  1

  9
$DIMLUNIT
 70
     2
  9
$DIMLWD
 70
    -2
  9
$DIMLWE
 70
    -2
  9
$DIMTMOVE
 70
     0
  9
$LUNITS
 70
     2
  9
$LUPREC
 70
     4
  9
$SKETCHINC
 40
1.0
  9
$FILLETRAD
 40
13.0
  9
$AUNITS
 70
     0
  9
$AUPREC
 70
     0
  9
$MENU
  1
.
  9
$ELEVATION
 40
0.0
  9
$PELEVATION
 40
0.0
  9
$THICKNESS
 40
0.0
  9
$LIMCHECK
 70
     0
  9
$CHAMFERA
 40
10.0
  9
$CHAMFERB
 40
10.0
  9
$CHAMFERC
 40
20.0
  9
$CHAMFERD
 40
0.0
  9
$SKPOLY
 70
     0
  9
$TDCREATE
 40
2454903.956921655
  9
$TDUCREATE
 40
2454903.873588321
  9
$TDUPDATE
 40
2456434.786895254
  9
$TDUUPDATE
 40
2456434.703561921
  9
$TDINDWG
 40
4.4048468171
  9
$TDUSRTIMER
 40
4.4048453704
  9
$USRTIMER
 70
     1
  9
$ANGBASE
 50
0.0
  9
$ANGDIR
 70
     0
  9
$PDMODE
 70
     0
  9
$PDSIZE
 40
0.0
  9
$PLINEWID
 40
0.0
  9
$SPLFRAME
 70
     0
  9
$SPLINETYPE
 70
     6
  9
$SPLINESEGS
 70
     8
  9
$HANDSEED
  5
2114
  9
$SURFTAB1
 70
     6
  9
$SURFTAB2
 70
     6
  9
$SURFTYPE
 70
     6
  9
$SURFU
 70
     6
  9
$SURFV
 70
     6
  9
$UCSBASE
  2

  9
$UCSNAME
  2

  9
$UCSORG
 10
0.0
 20
0.0
 30
0.0
  9
$UCSXDIR
 10
1.0
 20
0.0
 30
0.0
  9
$UCSYDIR
 10
0.0
 20
1.0
 30
0.0
  9
$UCSORTHOREF
  2

  9
$UCSORTHOVIEW
 70
     0
  9
$UCSORGTOP
 10
0.0
 20
0.0
 30
0.0
  9
$UCSORGBOTTOM
 10
0.0
 20
0.0
 30
0.0
  9
$UCSORGLEFT
 10
0.0
 20
0.0
 30
0.0
  9
$UCSORGRIGHT
 10
0.0
 20
0.0
 30
0.0
  9
$UCSORGFRONT
 10
0.0
 20
0.0
 30
0.0
  9
$UCSORGBACK
 10
0.0
 20
0.0
 30
0.0
  9
$PUCSBASE
  2

  9
$PUCSNAME
  2

  9
$PUCSORG
 10
0.0
 20
0.0
 30
0.0
  9
$PUCSXDIR
 10
1.0
 20
0.0
 30
0.0
  9
$PUCSYDIR
 10
0.0
 20
1.0
 30
0.0
  9
$PUCSORTHOREF
  2

  9
$PUCSORTHOVIEW
 70
     0
  9
$PUCSORGTOP
 10
0.0
 20
0.0
 30
0.0
  9
$PUCSORGBOTTOM
 10
0.0
 20
0.0
 30
0.0
  9
$PUCSORGLEFT
 10
0.0
 20
0.0
 30
0.0
  9
$PUCSORGRIGHT
 10
0.0
 20
0.0
 30
0.0
  9
$PUCSORGFRONT
 10
0.0
 20
0.0
 30
0.0
  9
$PUCSORGBACK
 10
0.0
 20
0.0
 30
0.0
  9
$USERI1
 70
     0
  9
$USERI2
 70
     0
  9
$USERI3
 70
     0
  9
$USERI4
 70
     0
  9
$USERI5
 70
     0
  9
$USERR1
 40
0.0
  9
$USERR2
 40
0.0
  9
$USERR3
 40
0.0
  9
$USERR4
 40
0.0
  9
$USERR5
 40
0.0
  9
$WORLDVIEW
 70
     1
  9
$SHADEDGE
 70
     3
  9
$SHADEDIF
 70
    70
  9
$TILEMODE
 70
     1
  9
$MAXACTVP
 70
    64
  9
$PINSBASE
 10
0.0
 20
0.0
 30
0.0
  9
$PLIMCHECK
 70
     0
  9
$PEXTMIN
 10
27.30500061511992
 20
20.95499908924102
 30
0.0
  9
$PEXTMAX
 10
245.7450055360794
 20
188.5949918031692
 30
0.0
  9
$PLIMMIN
 10
-3.17498779296875
 20
-3.174999952316284
  9
$PLIMMAX
 10
276.2250061035156
 20
212.724993944168
  9
$UNITMODE
 70
     0
  9
$VISRETAIN
 70
     1
  9
$PLINEGEN
 70
     0
  9
$PSLTSCALE
 70
     1
  9
$TREEDEPTH
 70
  3020
  9
$CMLSTYLE
  2
Standard
  9
$CMLJUST
 70
     0
  9
$CMLSCALE
 40
20.0
  9
$PROXYGRAPHICS
 70
     1
  9
$MEASUREMENT
 70
     1
  9
$CELWEIGHT
370
    -1
  9
$ENDCAPS
280
     0
  9
$JOINSTYLE
280
     0
  9
$LWDISPLAY
290
     0
  9
$INSUNITS
 70
     4
  9
$HYPERLINKBASE
  1

  9
$STYLESHEET
  1

  9
$XEDIT
290
     1
  9
$CEPSNTYPE
380
     0
  9
$PSTYLEMODE
290
     1
  9
$FINGERPRINTGUID
  2
{4B9D72FC-D2B8-4D3A-A04A-7F6FFB729B00}
  9
$VERSIONGUID
  2
{444B7930-6D13-4F1E-93A9-CC85C365EF10}
  9
$EXTNAMES
290
     1
  9
$PSVPSCALE
 40
0.0
  9
$OLESTARTUP
290
     0
  0
ENDSEC
  0
SECTION
  2
CLASSES
  0
CLASS
  1
ACDBDICTIONARYWDFLT
  2
AcDbDictionaryWithDefault
  3
AutoCAD 2000
 90
        0
280
     0
281
     0
  0
CLASS
  1
ACDBPLACEHOLDER
  2
AcDbPlaceHolder
  3
AutoCAD 2000
 90
        0
280
     0
281
     0
  0
CLASS
  1
LAYOUT
  2
AcDbLayout
  3
AutoCAD 2000
 90
        0
280
     0
281
     0
  0
CLASS
  1
SORTENTSTABLE
  2
AcDbSortentsTable
  3
AutoCAD 2000
 90
        0
280
     0
281
     0
  0
CLASS
  1
DICTIONARYVAR
  2
AcDbDictionaryVar
  3
AutoCAD 2000
 90
        0
280
     0
281
     0
  0
ENDSEC
  0
SECTION
  2
TABLES
  0
TABLE
  2
VPORT
  5
8
330
0
100
AcDbSymbolTable
 70
     2
  0
VPORT
  5
2113
330
8
100
AcDbSymbolTableRecord
100
AcDbViewportTableRecord
  2
*Active
 70
     0
 10
0.0
 20
0.0
 11
1.0
 21
1.0
 12
2863.162730552203
 22
1972.014922252255
 13
0.0
 23
0.0
 14
10.0
 24
10.0
 15
10.0
 25
10.0
 16
0.0
 26
0.0
 36
1.0
 17
0.0
 27
0.0
 37
0.0
 40
2525.200198709463
 41
2.003745318352059
 42
50.0
 43
0.0
 44
0.0
 50
0.0
 51
0.0
 71
     0
 72
   100
 73
     1
 74
     2
 75
     0
 76
     0
 77
     0
 78
     0
281
     0
 65
     1
110
0.0
120
0.0
130
0.0
111
1.0
121
0.0
131
0.0
112
0.0
122
1.0
132
0.0
 79
     0
146
0.0
  0
ENDTAB
  0
TABLE
  2
LTYPE
  5
5
330
0
100
AcDbSymbolTable
 70
     2
  0
LTYPE
  5
14
330
5
100
AcDbSymbolTableRecord
100
AcDbLinetypeTableRecord
  2
ByBlock
 70
     0
  3

 72
    65
 73
     0
 40
0.0
  0
LTYPE
  5
15
330
5
100
AcDbSymbolTableRecord
100
AcDbLinetypeTableRecord
  2
ByLayer
 70
     0
  3

 72
    65
 73
     0
 40
0.0
  0
LTYPE
  5
16
330
5
100
AcDbSymbolTableRecord
100
AcDbLinetypeTableRecord
  2
Continuous
 70
     0
  3
Solid line
 72
    65
 73
     0
 40
0.0
  0
LTYPE
  5
1A4F
330
5
100
AcDbSymbolTableRecord
100
AcDbLinetypeTableRecord
  2
ACAD_ISO03W100
 70
     0
  3
ISO tiret espace __    __    __    __    __    
 72
    65
 73
     2
 40
30.0
 49
12.0
 74
     0
 49
-18.0
 74
     0
  0
ENDTAB
  0
TABLE
  2
LAYER
  5
2
330
0
100
AcDbSymbolTable
 70
     3
  0
LAYER
  5
10
330
2
100
AcDbSymbolTableRecord
100
AcDbLayerTableRecord
  2
0
 70
     0
 62
     7
  6
Continuous
370
    -3
390
F
  0
LAYER
  5
1D8
330
2
100
AcDbSymbolTableRecord
100
AcDbLayerTableRecord
  2
Defpoints
 70
     0
 62
     7
  6
Continuous
290
     0
370
    -3
390
F
  0
LAYER
  5
2041
330
2
100
AcDbSymbolTableRecord
100
AcDbLayerTableRecord
  2
Calque1
 70
     0
 62
     7
  6
Continuous
370
    -3
390
F
  0
ENDTAB
  0
TABLE
  2
STYLE
  5
3
330
0
100
AcDbSymbolTable
 70
     2
  0
STYLE
  5
11
330
3
100
AcDbSymbolTableRecord
100
AcDbTextStyleTableRecord
  2
Standard
 70
     0
 40
0.0
 41
1.0
 50
0.0
 71
     0
 42
2.5
  3
txt
  4

  0
STYLE
  5
1A4E
330
3
100
AcDbSymbolTableRecord
100
AcDbTextStyleTableRecord
  2

 70
     1
 40
0.0
 41
1.0
 50
0.0
 71
     0
 42
2.5
  3
ltypeshp.shx
  4

  0
ENDTAB
  0
TABLE
  2
VIEW
  5
6
330
0
100
AcDbSymbolTable
 70
     0
  0
ENDTAB
  0
TABLE
  2
UCS
  5
7
330
0
100
AcDbSymbolTable
 70
     0
  0
ENDTAB
  0
TABLE
  2
APPID
  5
9
330
0
100
AcDbSymbolTable
 70
     1
  0
APPID
  5
12
330
9
100
AcDbSymbolTableRecord
100
AcDbRegAppTableRecord
  2
ACAD
 70
     0
  0
ENDTAB
  0
TABLE
  2
DIMSTYLE
  5
A
330
0
100
AcDbSymbolTable
 70
     1
100
AcDbDimStyleTable
 71
     1
340
27
  0
DIMSTYLE
105
27
102
{ACAD_REACTORS
330
3C0
330
5CF
330
1994
330
19A1
330
19AE
330
19D6
330
1CD2
330
1CDF
330
1D00
330
2067
330
2074
330
2081
330
20A9
330
20DC
330
20F2
330
2100
102
}
330
A
100
AcDbSymbolTableRecord
100
AcDbDimStyleTableRecord
  2
ISO-25
 70
     0
 41
2.5
 42
0.625
 43
3.75
 44
1.25
 73
     0
 74
     0
 77
     1
 78
     8
140
10.0
141
2.5
143
0.03937007874016
147
0.625
171
     3
172
     1
271
     2
272
     2
274
     3
278
    44
283
     0
284
     8
340
11
  0
ENDTAB
  0
TABLE
  2
BLOCK_RECORD
  5
1
330
0
100
AcDbSymbolTable
 70
    19
  0
BLOCK_RECORD
  5
1F
102
{ACAD_XDICTIONARY
360
BE
102
}
330
1
100
AcDbSymbolTableRecord
100
AcDbBlockTableRecord
  2
*Model_Space
340
22
  0
BLOCK_RECORD
  5
1B
330
1
100
AcDbSymbolTableRecord
100
AcDbBlockTableRecord
  2
*Paper_Space
340
1E
  0
BLOCK_RECORD
  5
23
330
1
100
AcDbSymbolTableRecord
100
AcDbBlockTableRecord
  2
*Paper_Space0
340
26
  0
BLOCK_RECORD
  5
3C1
330
1
100
AcDbSymbolTableRecord
100
AcDbBlockTableRecord
  2
*D1
340
0
  0
BLOCK_RECORD
  5
5D0
330
1
100
AcDbSymbolTableRecord
100
AcDbBlockTableRecord
  2
*D2
340
0
  0
BLOCK_RECORD
  5
1995
330
1
100
AcDbSymbolTableRecord
100
AcDbBlockTableRecord
  2
*D3
340
0
  0
BLOCK_RECORD
  5
19A2
330
1
100
AcDbSymbolTableRecord
100
AcDbBlockTableRecord
  2
*D4
340
0
  0
BLOCK_RECORD
  5
19AF
330
1
100
AcDbSymbolTableRecord
100
AcDbBlockTableRecord
  2
*D5
340
0
  0
BLOCK_RECORD
  5
19D7
330
1
100
AcDbSymbolTableRecord
100
AcDbBlockTableRecord
  2
*D6
340
0
  0
BLOCK_RECORD
  5
1CD3
330
1
100
AcDbSymbolTableRecord
100
AcDbBlockTableRecord
  2
*D7
340
0
  0
BLOCK_RECORD
  5
1CE0
330
1
100
AcDbSymbolTableRecord
100
AcDbBlockTableRecord
  2
*D8
340
0
  0
BLOCK_RECORD
  5
1D01
330
1
100
AcDbSymbolTableRecord
100
AcDbBlockTableRecord
  2
*D9
340
0
  0
BLOCK_RECORD
  5
2068
330
1
100
AcDbSymbolTableRecord
100
AcDbBlockTableRecord
  2
*D12
340
0
  0
BLOCK_RECORD
  5
2075
330
1
100
AcDbSymbolTableRecord
100
AcDbBlockTableRecord
  2
*D13
340
0
  0
BLOCK_RECORD
  5
2082
330
1
100
AcDbSymbolTableRecord
100
AcDbBlockTableRecord
  2
*D14
340
0
  0
BLOCK_RECORD
  5
20AA
330
1
100
AcDbSymbolTableRecord
100
AcDbBlockTableRecord
  2
*D15
340
0
  0
BLOCK_RECORD
  5
20DD
330
1
100
AcDbSymbolTableRecord
100
AcDbBlockTableRecord
  2
*D16
340
0
  0
BLOCK_RECORD
  5
20F3
330
1
100
AcDbSymbolTableRecord
100
AcDbBlockTableRecord
  2
*D17
340
0
  0
BLOCK_RECORD
  5
2101
330
1
100
AcDbSymbolTableRecord
100
AcDbBlockTableRecord
  2
*D18
340
0
  0
ENDTAB
  0
ENDSEC
  0
SECTION
  2
BLOCKS
  0
BLOCK
  5
20
330
1F
100
AcDbEntity
  8
0
100
AcDbBlockBegin
  2
*Model_Space
 70
     0
 10
0.0
 20
0.0
 30
0.0
  3
*Model_Space
  1

  0
ENDBLK
  5
21
330
1F
100
AcDbEntity
  8
0
100
AcDbBlockEnd
  0
BLOCK
  5
1C
330
1B
100
AcDbEntity
 67
     1
  8
0
100
AcDbBlockBegin
  2
*Paper_Space
 70
     0
 10
0.0
 20
0.0
 30
0.0
  3
*Paper_Space
  1

  0
ENDBLK
  5
1D
330
1B
100
AcDbEntity
 67
     1
  8
0
100
AcDbBlockEnd
  0
BLOCK
  5
24
330
23
100
AcDbEntity
  8
0
100
AcDbBlockBegin
  2
*Paper_Space0
 70
     0
 10
0.0
 20
0.0
 30
0.0
  3
*Paper_Space0
  1

  0
ENDBLK
  5
25
330
23
100
AcDbEntity
  8
0
100
AcDbBlockEnd
  0
BLOCK
  5
3CB
330
3C1
100
AcDbEntity
  8
0
 62
     1
100
AcDbBlockBegin
  2
*D1
 70
     1
 10
0.0
 20
0.0
 30
0.0
  3
*D1
  1

  0
LINE
  5
3C2
330
3C1
100
AcDbEntity
  8
0
 62
     0
370
    -2
100
AcDbLine
 10
2404.061359614212
 20
1163.200966443013
 30
0.0
 11
2377.046993406281
 21
1163.200966443013
 31
0.0
  0
LINE
  5
3C3
330
3C1
100
AcDbEntity
  8
0
 62
     0
370
    -2
100
AcDbLine
 10
2404.686359614212
 20
1178.200966443013
 30
0.0
 11
2377.046993406281
 21
1178.200966443013
 31
0.0
  0
LINE
  5
3C4
330
3C1
100
AcDbEntity
  8
0
 62
     0
370
    -2
100
AcDbLine
 10
2378.296993406281
 20
1165.700966443013
 30
0.0
 11
2378.296993406281
 21
1175.700966443013
 31
0.0
  0
SOLID
  5
3C5
330
3C1
100
AcDbEntity
  8
0
 62
     0
100
AcDbTrace
 10
2377.880326739614
 20
1165.700966443013
 30
0.0
 11
2378.713660072948
 21
1165.700966443013
 31
0.0
 12
2378.296993406281
 22
1163.200966443013
 32
0.0
 13
2378.296993406281
 23
1163.200966443013
 33
0.0
  0
SOLID
  5
3C6
330
3C1
100
AcDbEntity
  8
0
 62
     0
100
AcDbTrace
 10
2377.880326739614
 20
1175.700966443013
 30
0.0
 11
2378.713660072948
 21
1175.700966443013
 31
0.0
 12
2378.296993406281
 22
1178.200966443013
 32
0.0
 13
2378.296993406281
 23
1178.200966443013
 33
0.0
  0
MTEXT
  5
3C7
330
3C1
100
AcDbEntity
  8
0
 62
     0
100
AcDbMText
 10
2372.67199340628
 20
1170.700966443013
 30
0.0
 40
10.0
 41
0.0
 71
     5
 72
     1
  1
15
 11
0.0000000000000001
 21
1.0
 31
0.0
 73
     1
 44
1.0
  0
POINT
  5
3C8
330
3C1
100
AcDbEntity
  8
Defpoints
 62
     0
100
AcDbPoint
 10
2404.686359614212
 20
1163.200966443013
 30
0.0
  0
POINT
  5
3C9
330
3C1
100
AcDbEntity
  8
Defpoints
 62
     0
100
AcDbPoint
 10
2405.311359614212
 20
1178.200966443013
 30
0.0
  0
POINT
  5
3CA
330
3C1
100
AcDbEntity
  8
Defpoints
 62
     0
100
AcDbPoint
 10
2378.296993406281
 20
1178.200966443013
 30
0.0
  0
ENDBLK
  5
3CC
330
3C1
100
AcDbEntity
  8
0
 62
     1
100
AcDbBlockEnd
  0
BLOCK
  5
5DA
330
5D0
100
AcDbEntity
  8
0
 62
     1
100
AcDbBlockBegin
  2
*D2
 70
     1
 10
0.0
 20
0.0
 30
0.0
  3
*D2
  1

  0
LINE
  5
5D1
330
5D0
100
AcDbEntity
  8
0
 62
     0
370
    -2
100
AcDbLine
 10
2600.311359614212
 20
1278.827912571338
 30
0.0
 11
2600.311359614212
 21
1305.593725225978
 31
0.0
  0
LINE
  5
5D2
330
5D0
100
AcDbEntity
  8
0
 62
     0
370
    -2
100
AcDbLine
 10
2868.316296589473
 20
1270.827912571338
 30
0.0
 11
2868.316296589473
 21
1305.593725225978
 31
0.0
  0
LINE
  5
5D3
330
5D0
100
AcDbEntity
  8
0
 62
     0
370
    -2
100
AcDbLine
 10
2602.811359614212
 20
1304.343725225978
 30
0.0
 11
2865.816296589473
 21
1304.343725225978
 31
0.0
  0
SOLID
  5
5D4
330
5D0
100
AcDbEntity
  8
0
 62
     0
100
AcDbTrace
 10
2602.811359614212
 20
1304.760391892645
 30
0.0
 11
2602.811359614212
 21
1303.927058559311
 31
0.0
 12
2600.311359614212
 22
1304.343725225978
 32
0.0
 13
2600.311359614212
 23
1304.343725225978
 33
0.0
  0
SOLID
  5
5D5
330
5D0
100
AcDbEntity
  8
0
 62
     0
100
AcDbTrace
 10
2865.816296589473
 20
1304.760391892645
 30
0.0
 11
2865.816296589473
 21
1303.927058559311
 31
0.0
 12
2868.316296589473
 22
1304.343725225978
 32
0.0
 13
2868.316296589473
 23
1304.343725225978
 33
0.0
  0
MTEXT
  5
5D6
330
5D0
100
AcDbEntity
  8
0
 62
     0
100
AcDbMText
 10
2734.313828101843
 20
1309.968725225978
 30
0.0
 40
10.0
 41
0.0
 71
     5
 72
     1
  1
268
 73
     1
 44
1.0
  0
POINT
  5
5D7
330
5D0
100
AcDbEntity
  8
Defpoints
 62
     0
100
AcDbPoint
 10
2600.311359614212
 20
1278.202912571338
 30
0.0
  0
POINT
  5
5D8
330
5D0
100
AcDbEntity
  8
Defpoints
 62
     0
100
AcDbPoint
 10
2868.316296589473
 20
1270.202912571338
 30
0.0
  0
POINT
  5
5D9
330
5D0
100
AcDbEntity
  8
Defpoints
 62
     0
100
AcDbPoint
 10
2868.316296589473
 20
1304.343725225978
 30
0.0
  0
ENDBLK
  5
5DB
330
5D0
100
AcDbEntity
  8
0
 62
     1
100
AcDbBlockEnd
  0
BLOCK
  5
199F
330
1995
100
AcDbEntity
  8
0
 62
     5
100
AcDbBlockBegin
  2
*D3
 70
     1
 10
0.0
 20
0.0
 30
0.0
  3
*D3
  1

  0
LINE
  5
19C4
330
1995
100
AcDbEntity
  8
0
 62
     0
370
    -2
100
AcDbLine
 10
2177.76880545419
 20
1820.882269502515
 30
0.0
 11
2177.76880545419
 21
1839.976746085189
 31
0.0
  0
LINE
  5
19C5
330
1995
100
AcDbEntity
  8
0
 62
     0
370
    -2
100
AcDbLine
 10
2377.76880545419
 20
1820.882269502515
 30
0.0
 11
2377.76880545419
 21
1839.976746085189
 31
0.0
  0
LINE
  5
19C6
330
1995
100
AcDbEntity
  8
0
 62
     0
370
    -2
100
AcDbLine
 10
2180.26880545419
 20
1838.726746085189
 30
0.0
 11
2375.26880545419
 21
1838.726746085189
 31
0.0
  0
SOLID
  5
19C7
330
1995
100
AcDbEntity
  8
0
 62
     0
100
AcDbTrace
 10
2180.26880545419
 20
1839.143412751855
 30
0.0
 11
2180.26880545419
 21
1838.310079418522
 31
0.0
 12
2177.76880545419
 22
1838.726746085189
 32
0.0
 13
2177.76880545419
 23
1838.726746085189
 33
0.0
  0
SOLID
  5
19C8
330
1995
100
AcDbEntity
  8
0
 62
     0
100
AcDbTrace
 10
2375.26880545419
 20
1839.143412751855
 30
0.0
 11
2375.26880545419
 21
1838.310079418522
 31
0.0
 12
2377.76880545419
 22
1838.726746085189
 32
0.0
 13
2377.76880545419
 23
1838.726746085189
 33
0.0
  0
MTEXT
  5
19C9
330
1995
100
AcDbEntity
  8
0
 62
     0
100
AcDbMText
 10
2277.76880545419
 20
1844.351746085188
 30
0.0
 40
10.0
 41
0.0
 71
     5
 72
     1
  1
200
 73
     1
 44
1.0
  0
POINT
  5
19CA
330
1995
100
AcDbEntity
  8
Defpoints
 62
     0
100
AcDbPoint
 10
2177.76880545419
 20
1820.257269502515
 30
0.0
  0
POINT
  5
19CB
330
1995
100
AcDbEntity
  8
Defpoints
 62
     0
100
AcDbPoint
 10
2377.76880545419
 20
1820.257269502515
 30
0.0
  0
POINT
  5
19CC
330
1995
100
AcDbEntity
  8
Defpoints
 62
     0
100
AcDbPoint
 10
2377.76880545419
 20
1838.726746085189
 30
0.0
  0
ENDBLK
  5
19A0
330
1995
100
AcDbEntity
  8
0
 62
     5
100
AcDbBlockEnd
  0
BLOCK
  5
19AC
330
19A2
100
AcDbEntity
  8
0
 62
     5
100
AcDbBlockBegin
  2
*D4
 70
     1
 10
0.0
 20
0.0
 30
0.0
  3
*D4
  1

  0
LINE
  5
19CD
330
19A2
100
AcDbEntity
  8
0
 62
     0
370
    -2
100
AcDbLine
 10
2177.14380545419
 20
1820.257269502515
 30
0.0
 11
2146.264836186761
 21
1820.257269502515
 31
0.0
  0
LINE
  5
19CE
330
19A2
100
AcDbEntity
  8
0
 62
     0
370
    -2
100
AcDbLine
 10
2177.14380545419
 20
1680.257269502515
 30
0.0
 11
2146.264836186761
 21
1680.257269502515
 31
0.0
  0
LINE
  5
19CF
330
19A2
100
AcDbEntity
  8
0
 62
     0
370
    -2
100
AcDbLine
 10
2147.514836186761
 20
1817.757269502515
 30
0.0
 11
2147.514836186761
 21
1682.757269502515
 31
0.0
  0
SOLID
  5
19D0
330
19A2
100
AcDbEntity
  8
0
 62
     0
100
AcDbTrace
 10
2147.098169520095
 20
1817.757269502515
 30
0.0
 11
2147.931502853428
 21
1817.757269502515
 31
0.0
 12
2147.514836186761
 22
1820.257269502515
 32
0.0
 13
2147.514836186761
 23
1820.257269502515
 33
0.0
  0
SOLID
  5
19D1
330
19A2
100
AcDbEntity
  8
0
 62
     0
100
AcDbTrace
 10
2147.098169520095
 20
1682.757269502515
 30
0.0
 11
2147.931502853428
 21
1682.757269502515
 31
0.0
 12
2147.514836186761
 22
1680.257269502515
 32
0.0
 13
2147.514836186761
 23
1680.257269502515
 33
0.0
  0
MTEXT
  5
19D2
330
19A2
100
AcDbEntity
  8
0
 62
     0
100
AcDbMText
 10
2141.889836186761
 20
1750.257269502515
 30
0.0
 40
10.0
 41
0.0
 71
     5
 72
     1
  1
140
 11
0.0000000000000001
 21
1.0
 31
0.0
 73
     1
 44
1.0
  0
POINT
  5
19D3
330
19A2
100
AcDbEntity
  8
Defpoints
 62
     0
100
AcDbPoint
 10
2177.76880545419
 20
1820.257269502515
 30
0.0
  0
POINT
  5
19D4
330
19A2
100
AcDbEntity
  8
Defpoints
 62
     0
100
AcDbPoint
 10
2177.76880545419
 20
1680.257269502515
 30
0.0
  0
POINT
  5
19D5
330
19A2
100
AcDbEntity
  8
Defpoints
 62
     0
100
AcDbPoint
 10
2147.514836186761
 20
1680.257269502515
 30
0.0
  0
ENDBLK
  5
19AD
330
19A2
100
AcDbEntity
  8
0
 62
     5
100
AcDbBlockEnd
  0
BLOCK
  5
19B9
330
19AF
100
AcDbEntity
  8
0
 62
     5
100
AcDbBlockBegin
  2
*D5
 70
     1
 10
0.0
 20
0.0
 30
0.0
  3
*D5
  1

  0
LINE
  5
19BB
330
19AF
100
AcDbEntity
  8
0
 62
     0
370
    -2
100
AcDbLine
 10
2378.39380545419
 20
1642.562323567662
 30
0.0
 11
2422.929756006133
 21
1642.562323567662
 31
0.0
  0
LINE
  5
19BC
330
19AF
100
AcDbEntity
  8
0
 62
     0
370
    -2
100
AcDbLine
 10
2378.39380545419
 20
1472.562323567662
 30
0.0
 11
2422.929756006133
 21
1472.562323567662
 31
0.0
  0
LINE
  5
19BD
330
19AF
100
AcDbEntity
  8
0
 62
     0
370
    -2
100
AcDbLine
 10
2421.679756006133
 20
1640.062323567662
 30
0.0
 11
2421.679756006133
 21
1475.062323567662
 31
0.0
  0
SOLID
  5
19BE
330
19AF
100
AcDbEntity
  8
0
 62
     0
100
AcDbTrace
 10
2421.263089339467
 20
1640.062323567662
 30
0.0
 11
2422.096422672799
 21
1640.062323567662
 31
0.0
 12
2421.679756006133
 22
1642.562323567662
 32
0.0
 13
2421.679756006133
 23
1642.562323567662
 33
0.0
  0
SOLID
  5
19BF
330
19AF
100
AcDbEntity
  8
0
 62
     0
100
AcDbTrace
 10
2421.263089339467
 20
1475.062323567662
 30
0.0
 11
2422.096422672799
 21
1475.062323567662
 31
0.0
 12
2421.679756006133
 22
1472.562323567662
 32
0.0
 13
2421.679756006133
 23
1472.562323567662
 33
0.0
  0
MTEXT
  5
19C0
330
19AF
100
AcDbEntity
  8
0
 62
     0
100
AcDbMText
 10
2416.054756006133
 20
1557.562323567662
 30
0.0
 40
10.0
 41
0.0
 71
     5
 72
     1
  1
170
 11
0.0000000000000001
 21
1.0
 31
0.0
 73
     1
 44
1.0
  0
POINT
  5
19C1
330
19AF
100
AcDbEntity
  8
Defpoints
 62
     0
100
AcDbPoint
 10
2377.76880545419
 20
1642.562323567662
 30
0.0
  0
POINT
  5
19C2
330
19AF
100
AcDbEntity
  8
Defpoints
 62
     0
100
AcDbPoint
 10
2377.76880545419
 20
1472.562323567662
 30
0.0
  0
POINT
  5
19C3
330
19AF
100
AcDbEntity
  8
Defpoints
 62
     0
100
AcDbPoint
 10
2421.679756006133
 20
1472.562323567662
 30
0.0
  0
ENDBLK
  5
19BA
330
19AF
100
AcDbEntity
  8
0
 62
     5
100
AcDbBlockEnd
  0
BLOCK
  5
19E1
330
19D7
100
AcDbEntity
  8
0
 62
     5
100
AcDbBlockBegin
  2
*D6
 70
     1
 10
0.0
 20
0.0
 30
0.0
  3
*D6
  1

  0
LINE
  5
19EC
330
19D7
100
AcDbEntity
  8
0
 62
     0
370
    -2
100
AcDbLine
 10
1929.833474903952
 20
1565.139246644585
 30
0.0
 11
1919.396263265649
 21
1590.188554576513
 31
0.0
  0
LINE
  5
19ED
330
19D7
100
AcDbEntity
  8
0
 62
     0
370
    -2
100
AcDbLine
 10
2044.833474903952
 20
1613.055913311251
 30
0.0
 11
2034.396263265649
 21
1638.10522124318
 31
0.0
  0
LINE
  5
19EE
330
19D7
100
AcDbEntity
  8
0
 62
     0
370
    -2
100
AcDbLine
 10
1922.18472480411
 20
1589.996246884206
 30
0.0
 11
2032.569340188726
 21
1635.989836627795
 31
0.0
  0
SOLID
  5
19EF
330
19D7
100
AcDbEntity
  8
0
 62
     0
100
AcDbTrace
 10
1922.024468393854
 20
1590.380862268821
 30
0.0
 11
1922.344981214367
 21
1589.61163149959
 31
0.0
 12
1919.877032496418
 22
1589.034708422667
 32
0.0
 13
1919.877032496418
 23
1589.034708422667
 33
0.0
  0
SOLID
  5
19F0
330
19D7
100
AcDbEntity
  8
0
 62
     0
100
AcDbTrace
 10
2032.409083778469
 20
1636.37445201241
 30
0.0
 11
2032.729596598982
 21
1635.60522124318
 31
0.0
 12
2034.877032496418
 22
1636.951375089334
 32
0.0
 13
2034.877032496418
 23
1636.951375089334
 33
0.0
  0
MTEXT
  5
19F1
330
19D7
100
AcDbEntity
  8
0
 62
     0
100
AcDbMText
 10
1974.893058137443
 20
1618.954580217539
 30
0.0
 40
10.0
 41
0.0
 71
     5
 72
     1
  1
124,58
 11
0.9230769230769247
 21
0.3846153846153812
 31
0.0
 73
     1
 44
1.0
  0
POINT
  5
19F2
330
19D7
100
AcDbEntity
  8
Defpoints
 62
     0
100
AcDbPoint
 10
1930.073859519337
 20
1564.562323567662
 30
0.0
  0
POINT
  5
19F3
330
19D7
100
AcDbEntity
  8
Defpoints
 62
     0
100
AcDbPoint
 10
2045.073859519337
 20
1612.478990234328
 30
0.0
  0
POINT
  5
19F4
330
19D7
100
AcDbEntity
  8
Defpoints
 62
     0
100
AcDbPoint
 10
2034.877032496418
 20
1636.951375089334
 30
0.0
  0
ENDBLK
  5
19E2
330
19D7
100
AcDbEntity
  8
0
 62
     5
100
AcDbBlockEnd
  0
BLOCK
  5
1CDD
330
1CD3
100
AcDbEntity
  8
0
 62
     5
100
AcDbBlockBegin
  2
*D7
 70
     1
 10
0.0
 20
0.0
 30
0.0
  3
*D7
  1

  0
LINE
  5
1CD4
330
1CD3
100
AcDbEntity
  8
0
 62
     0
370
    -2
100
AcDbLine
 10
2969.92961810387
 20
2674.629380304996
 30
0.0
 11
3383.561376922911
 21
2674.629380304996
 31
0.0
  0
LINE
  5
1CD5
330
1CD3
100
AcDbEntity
  8
0
 62
     0
370
    -2
100
AcDbLine
 10
2939.929288115672
 20
2627.629380304997
 30
0.0
 11
3383.561376922911
 21
2627.629380304996
 31
0.0
  0
LINE
  5
1CD6
330
1CD3
100
AcDbEntity
  8
0
 62
     0
370
    -2
100
AcDbLine
 10
3382.311376922911
 20
2672.129380304996
 30
0.0
 11
3382.311376922911
 21
2630.129380304996
 31
0.0
  0
SOLID
  5
1CD7
330
1CD3
100
AcDbEntity
  8
0
 62
     0
100
AcDbTrace
 10
3381.894710256244
 20
2672.129380304996
 30
0.0
 11
3382.728043589578
 21
2672.129380304996
 31
0.0
 12
3382.311376922911
 22
2674.629380304996
 32
0.0
 13
3382.311376922911
 23
2674.629380304996
 33
0.0
  0
SOLID
  5
1CD8
330
1CD3
100
AcDbEntity
  8
0
 62
     0
100
AcDbTrace
 10
3381.894710256244
 20
2630.129380304996
 30
0.0
 11
3382.728043589578
 21
2630.129380304996
 31
0.0
 12
3382.311376922911
 22
2627.629380304996
 32
0.0
 13
3382.311376922911
 23
2627.629380304996
 33
0.0
  0
MTEXT
  5
1CD9
330
1CD3
100
AcDbEntity
  8
0
 62
     0
100
AcDbMText
 10
3376.686376922911
 20
2651.129380304997
 30
0.0
 40
10.0
 41
0.0
 71
     5
 72
     1
  1
47
 11
0.0000000000000001
 21
1.0
 31
0.0
 73
     1
 44
1.0
  0
POINT
  5
1CDA
330
1CD3
100
AcDbEntity
  8
Defpoints
 62
     0
100
AcDbPoint
 10
2969.304618103869
 20
2674.629380304996
 30
0.0
  0
POINT
  5
1CDB
330
1CD3
100
AcDbEntity
  8
Defpoints
 62
     0
100
AcDbPoint
 10
2939.304288115673
 20
2627.629380304997
 30
0.0
  0
POINT
  5
1CDC
330
1CD3
100
AcDbEntity
  8
Defpoints
 62
     0
100
AcDbPoint
 10
3382.311376922911
 20
2627.629380304996
 30
0.0
  0
ENDBLK
  5
1CDE
330
1CD3
100
AcDbEntity
  8
0
 62
     5
100
AcDbBlockEnd
  0
BLOCK
  5
1CEA
330
1CE0
100
AcDbEntity
  8
0
 62
     5
100
AcDbBlockBegin
  2
*D8
 70
     1
 10
0.0
 20
0.0
 30
0.0
  3
*D8
  1

  0
LINE
  5
1CE1
330
1CE0
100
AcDbEntity
  8
0
 62
     0
370
    -2
100
AcDbLine
 10
2969.304618103869
 20
2675.254380304997
 30
0.0
 11
2969.304618103869
 21
2789.040394375112
 31
0.0
  0
LINE
  5
1CE2
330
1CE0
100
AcDbEntity
  8
0
 62
     0
370
    -2
100
AcDbLine
 10
2939.304288115673
 20
2627.254380304997
 30
0.0
 11
2939.304288115673
 21
2789.040394375112
 31
0.0
  0
LINE
  5
1CE3
330
1CE0
100
AcDbEntity
  8
0
 62
     0
370
    -2
100
AcDbLine
 10
2966.80461810387
 20
2787.790394375112
 30
0.0
 11
2941.804288115672
 21
2787.790394375112
 31
0.0
  0
SOLID
  5
1CE4
330
1CE0
100
AcDbEntity
  8
0
 62
     0
100
AcDbTrace
 10
2966.80461810387
 20
2788.207061041779
 30
0.0
 11
2966.80461810387
 21
2787.373727708446
 31
0.0
 12
2969.304618103869
 22
2787.790394375112
 32
0.0
 13
2969.304618103869
 23
2787.790394375112
 33
0.0
  0
SOLID
  5
1CE5
330
1CE0
100
AcDbEntity
  8
0
 62
     0
100
AcDbTrace
 10
2941.804288115672
 20
2788.207061041779
 30
0.0
 11
2941.804288115672
 21
2787.373727708446
 31
0.0
 12
2939.304288115673
 22
2787.790394375112
 32
0.0
 13
2939.304288115673
 23
2787.790394375112
 33
0.0
  0
MTEXT
  5
1CE6
330
1CE0
100
AcDbEntity
  8
0
 62
     0
100
AcDbMText
 10
2954.304453109771
 20
2793.415394375112
 30
0.0
 40
10.0
 41
0.0
 71
     5
 72
     1
  1
30
 73
     1
 44
1.0
  0
POINT
  5
1CE7
330
1CE0
100
AcDbEntity
  8
Defpoints
 62
     0
100
AcDbPoint
 10
2969.304618103869
 20
2674.629380304996
 30
0.0
  0
POINT
  5
1CE8
330
1CE0
100
AcDbEntity
  8
Defpoints
 62
     0
100
AcDbPoint
 10
2939.304288115673
 20
2626.629380304996
 30
0.0
  0
POINT
  5
1CE9
330
1CE0
100
AcDbEntity
  8
Defpoints
 62
     0
100
AcDbPoint
 10
2939.304288115673
 20
2787.790394375112
 30
0.0
  0
ENDBLK
  5
1CEB
330
1CE0
100
AcDbEntity
  8
0
 62
     5
100
AcDbBlockEnd
  0
BLOCK
  5
1D0B
330
1D01
100
AcDbEntity
  8
0
 62
     5
100
AcDbBlockBegin
  2
*D9
 70
     1
 10
0.0
 20
0.0
 30
0.0
  3
*D9
  1

  0
LINE
  5
1D02
330
1D01
100
AcDbEntity
  8
0
 62
     0
370
    -2
100
AcDbLine
 10
2369.304618103869
 20
2021.766253126093
 30
0.0
 11
2369.304618103869
 21
1843.887322777543
 31
0.0
  0
LINE
  5
1D03
330
1D01
100
AcDbEntity
  8
0
 62
     0
370
    -2
100
AcDbLine
 10
3729.304618103869
 20
2021.766253126093
 30
0.0
 11
3729.304618103869
 21
1843.887322777543
 31
0.0
  0
LINE
  5
1D04
330
1D01
100
AcDbEntity
  8
0
 62
     0
370
    -2
100
AcDbLine
 10
2371.804618103869
 20
1845.137322777543
 30
0.0
 11
3726.804618103869
 21
1845.137322777543
 31
0.0
  0
SOLID
  5
1D05
330
1D01
100
AcDbEntity
  8
0
 62
     0
100
AcDbTrace
 10
2371.804618103869
 20
1845.553989444209
 30
0.0
 11
2371.804618103869
 21
1844.720656110876
 31
0.0
 12
2369.304618103869
 22
1845.137322777543
 32
0.0
 13
2369.304618103869
 23
1845.137322777543
 33
0.0
  0
SOLID
  5
1D06
330
1D01
100
AcDbEntity
  8
0
 62
     0
100
AcDbTrace
 10
3726.804618103869
 20
1845.553989444209
 30
0.0
 11
3726.804618103869
 21
1844.720656110876
 31
0.0
 12
3729.304618103869
 22
1845.137322777543
 32
0.0
 13
3729.304618103869
 23
1845.137322777543
 33
0.0
  0
MTEXT
  5
1D07
330
1D01
100
AcDbEntity
  8
0
 62
     0
100
AcDbMText
 10
3049.30461810387
 20
1850.762322777542
 30
0.0
 40
10.0
 41
0.0
 71
     5
 72
     1
  1
1360
 73
     1
 44
1.0
  0
POINT
  5
1D08
330
1D01
100
AcDbEntity
  8
Defpoints
 62
     0
100
AcDbPoint
 10
2369.304618103869
 20
2022.391253126093
 30
0.0
  0
POINT
  5
1D09
330
1D01
100
AcDbEntity
  8
Defpoints
 62
     0
100
AcDbPoint
 10
3729.304618103869
 20
2022.391253126093
 30
0.0
  0
POINT
  5
1D0A
330
1D01
100
AcDbEntity
  8
Defpoints
 62
     0
100
AcDbPoint
 10
3729.304618103869
 20
1845.137322777543
 30
0.0
  0
ENDBLK
  5
1D0C
330
1D01
100
AcDbEntity
  8
0
 62
     5
100
AcDbBlockEnd
  0
BLOCK
  5
2072
330
2068
100
AcDbEntity
  8
0
 62
     5
100
AcDbBlockBegin
  2
*D12
 70
     1
 10
0.0
 20
0.0
 30
0.0
  3
*D12
  1

  0
LINE
  5
20D3
330
2068
100
AcDbEntity
  8
Calque1
 62
     0
370
    -2
100
AcDbLine
 10
6722.852022189041
 20
2526.096186247897
 30
0.0
 11
6690.784493807926
 21
2494.182259241348
 31
0.0
  0
LINE
  5
20D4
330
2068
100
AcDbEntity
  8
Calque1
 62
     0
370
    -2
100
AcDbLine
 10
6700.234855747429
 20
2530.393136579524
 30
0.0
 11
6677.381757291873
 21
2507.649502978698
 31
0.0
  0
LINE
  5
20D5
330
2068
100
AcDbEntity
  8
Calque1
 62
     0
370
    -2
100
AcDbLine
 10
6689.906978722746
 20
2496.836023977583
 30
0.0
 11
6680.031278131967
 21
2506.759256205103
 31
0.0
  0
SOLID
  5
20D6
330
2068
100
AcDbEntity
  8
Calque1
 62
     0
100
AcDbTrace
 10
6690.202313015231
 20
2497.129943638022
 30
0.0
 11
6689.611644430259
 21
2496.542104317143
 31
0.0
 12
6691.670496685384
 22
2495.064018222668
 32
0.0
 13
6691.670496685384
 23
2495.064018222668
 33
0.0
  0
SOLID
  5
20D7
330
2068
100
AcDbEntity
  8
Calque1
 62
     0
100
AcDbTrace
 10
6680.326612424455
 20
2507.053175865543
 30
0.0
 11
6679.735943839482
 21
2506.465336544663
 31
0.0
 12
6678.26776016933
 22
2508.531261960018
 32
0.0
 13
6678.26776016933
 23
2508.531261960018
 33
0.0
  0
MTEXT
  5
20D8
330
2068
100
AcDbEntity
  8
Calque1
 62
     0
100
AcDbMText
 10
6688.956141375912
 20
2505.76555550728
 30
0.0
 40
10.0
 41
0.0
 71
     5
 72
     1
  1
19
 11
0.7054071850555374
 21
-0.7088023019658041
 31
0.0
 73
     1
 44
1.0
  0
POINT
  5
20D9
330
2068
100
AcDbEntity
  8
Defpoints
 62
     0
100
AcDbPoint
 10
6723.295023627769
 20
2526.537065738557
 30
0.0
  0
POINT
  5
20DA
330
2068
100
AcDbEntity
  8
Defpoints
 62
     0
100
AcDbPoint
 10
6700.677857186159
 20
2530.834016070183
 30
0.0
  0
POINT
  5
20DB
330
2068
100
AcDbEntity
  8
Defpoints
 62
     0
100
AcDbPoint
 10
6678.26776016933
 20
2508.531261960018
 30
0.0
  0
ENDBLK
  5
2073
330
2068
100
AcDbEntity
  8
0
 62
     5
100
AcDbBlockEnd
  0
BLOCK
  5
207F
330
2075
100
AcDbEntity
  8
0
 62
     5
100
AcDbBlockBegin
  2
*D13
 70
     1
 10
0.0
 20
0.0
 30
0.0
  3
*D13
  1

  0
LINE
  5
20C1
330
2075
100
AcDbEntity
  8
Calque1
 62
     0
370
    -2
100
AcDbLine
 10
6700.236977695498
 20
2531.277017508911
 30
0.0
 11
6685.915406632912
 21
2545.667518133211
 31
0.0
  0
LINE
  5
20C2
330
2075
100
AcDbEntity
  8
Calque1
 62
     0
370
    -2
100
AcDbLine
 10
6738.773743412929
 20
2569.629194625841
 30
0.0
 11
6724.452172350345
 21
2584.019695250138
 31
0.0
  0
LINE
  5
20C3
330
2075
100
AcDbEntity
  8
Calque1
 62
     0
370
    -2
100
AcDbLine
 10
6688.569171369147
 20
2546.545033218392
 30
0.0
 11
6723.561925576749
 21
2581.370174410043
 31
0.0
  0
SOLID
  5
20C4
330
2075
100
AcDbEntity
  8
Calque1
 62
     0
100
AcDbTrace
 10
6688.275251708708
 20
2546.840367510878
 30
0.0
 11
6688.863091029587
 21
2546.249698925907
 31
0.0
 12
6686.797165614233
 22
2544.781515255754
 32
0.0
 13
6686.797165614233
 23
2544.781515255754
 33
0.0
  0
SOLID
  5
20C5
330
2075
100
AcDbEntity
  8
Calque1
 62
     0
100
AcDbTrace
 10
6723.26800591631
 20
2581.665508702528
 30
0.0
 11
6723.855845237189
 21
2581.074840117556
 31
0.0
 12
6725.333931331665
 22
2583.133692372681
 32
0.0
 13
6725.333931331665
 23
2583.133692372681
 33
0.0
  0
MTEXT
  5
20C6
330
2075
100
AcDbEntity
  8
Calque1
 62
     0
100
AcDbMText
 10
6701.509793736132
 20
2568.535285347747
 30
0.0
 40
10.0
 41
0.0
 71
     5
 72
     1
  1
54,37
 11
0.7088023019658058
 21
0.7054071850555356
 31
0.0
 73
     1
 44
1.0
  0
POINT
  5
20C7
330
2075
100
AcDbEntity
  8
Defpoints
 62
     0
100
AcDbPoint
 10
6700.677857186157
 20
2530.834016070183
 30
0.0
  0
POINT
  5
20C8
330
2075
100
AcDbEntity
  8
Defpoints
 62
     0
100
AcDbPoint
 10
6739.214622903588
 20
2569.186193187112
 30
0.0
  0
POINT
  5
20C9
330
2075
100
AcDbEntity
  8
Defpoints
 62
     0
100
AcDbPoint
 10
6725.333931331665
 20
2583.133692372681
 30
0.0
  0
ENDBLK
  5
2080
330
2075
100
AcDbEntity
  8
0
 62
     5
100
AcDbBlockEnd
  0
BLOCK
  5
208C
330
2082
100
AcDbEntity
  8
0
 62
     5
100
AcDbBlockBegin
  2
*D14
 70
     1
 10
0.0
 20
0.0
 30
0.0
  3
*D14
  1

  0
LINE
  5
20E9
330
2082
100
AcDbEntity
  8
Calque1
 62
     0
370
    -2
100
AcDbLine
 10
6752.424477487591
 20
2567.311193187113
 30
0.0
 11
6752.424477487591
 21
2592.202546618696
 31
0.0
  0
LINE
  5
20EA
330
2082
100
AcDbEntity
  8
Calque1
 62
     0
370
    -2
100
AcDbLine
 10
6782.424477487592
 20
2567.311193187113
 30
0.0
 11
6782.424477487592
 21
2592.202546618696
 31
0.0
  0
LINE
  5
20EB
330
2082
100
AcDbEntity
  8
Calque1
 62
     0
370
    -2
100
AcDbLine
 10
6754.924477487591
 20
2590.952546618696
 30
0.0
 11
6779.924477487593
 21
2590.952546618696
 31
0.0
  0
SOLID
  5
20EC
330
2082
100
AcDbEntity
  8
Calque1
 62
     0
100
AcDbTrace
 10
6754.924477487591
 20
2591.369213285362
 30
0.0
 11
6754.924477487591
 21
2590.535879952029
 31
0.0
 12
6752.424477487591
 22
2590.952546618696
 32
0.0
 13
6752.424477487591
 23
2590.952546618696
 33
0.0
  0
SOLID
  5
20ED
330
2082
100
AcDbEntity
  8
Calque1
 62
     0
100
AcDbTrace
 10
6779.924477487593
 20
2591.369213285362
 30
0.0
 11
6779.924477487593
 21
2590.535879952029
 31
0.0
 12
6782.424477487592
 22
2590.952546618696
 32
0.0
 13
6782.424477487592
 23
2590.952546618696
 33
0.0
  0
MTEXT
  5
20EE
330
2082
100
AcDbEntity
  8
Calque1
 62
     0
100
AcDbMText
 10
6767.424477487591
 20
2596.577546618696
 30
0.0
 40
10.0
 41
0.0
 71
     5
 72
     1
  1
30
 73
     1
 44
1.0
  0
POINT
  5
20EF
330
2082
100
AcDbEntity
  8
Defpoints
 62
     0
100
AcDbPoint
 10
6752.424477487591
 20
2566.686193187113
 30
0.0
  0
POINT
  5
20F0
330
2082
100
AcDbEntity
  8
Defpoints
 62
     0
100
AcDbPoint
 10
6782.424477487592
 20
2566.686193187113
 30
0.0
  0
POINT
  5
20F1
330
2082
100
AcDbEntity
  8
Defpoints
 62
     0
100
AcDbPoint
 10
6782.424477487592
 20
2590.952546618696
 30
0.0
  0
ENDBLK
  5
208D
330
2082
100
AcDbEntity
  8
0
 62
     5
100
AcDbBlockEnd
  0
BLOCK
  5
20B5
330
20AA
100
AcDbEntity
  8
0
 62
     5
100
AcDbBlockBegin
  2
*D15
 70
     1
 10
0.0
 20
0.0
 30
0.0
  3
*D15
  1

  0
LINE
  5
20B7
330
20AA
100
AcDbEntity
  8
Calque1
 62
     0
370
    -2
100
AcDbLine
 10
6722.852022189041
 20
2525.471186247896
 30
0.0
 11
6722.852022189041
 21
2494.007756505708
 31
0.0
  0
LINE
  5
20B8
330
20AA
100
AcDbEntity
  8
Calque1
 62
     0
370
    -2
100
AcDbLine
 10
6752.424477487591
 20
2536.561193187114
 30
0.0
 11
6752.424477487591
 21
2494.007756505708
 31
0.0
  0
LINE
  5
20B9
330
20AA
100
AcDbEntity
  8
Calque1
 62
     0
370
    -2
100
AcDbLine
 10
6725.352022189039
 20
2495.257756505708
 30
0.0
 11
6749.924477487592
 21
2495.257756505708
 31
0.0
  0
LINE
  5
20BA
330
20AA
100
AcDbEntity
  8
Calque1
 62
     0
370
    -2
100
AcDbLine
 10
6752.424477487591
 20
2495.257756505708
 30
0.0
 11
6797.841144154259
 21
2495.257756505708
 31
0.0
  0
SOLID
  5
20BB
330
20AA
100
AcDbEntity
  8
Calque1
 62
     0
100
AcDbTrace
 10
6725.352022189039
 20
2495.674423172374
 30
0.0
 11
6725.352022189039
 21
2494.841089839042
 31
0.0
 12
6722.852022189041
 22
2495.257756505708
 32
0.0
 13
6722.852022189041
 23
2495.257756505708
 33
0.0
  0
SOLID
  5
20BC
330
20AA
100
AcDbEntity
  8
Calque1
 62
     0
100
AcDbTrace
 10
6749.924477487592
 20
2495.674423172374
 30
0.0
 11
6749.924477487592
 21
2494.841089839042
 31
0.0
 12
6752.424477487591
 22
2495.257756505708
 32
0.0
 13
6752.424477487591
 23
2495.257756505708
 33
0.0
  0
MTEXT
  5
20BD
330
20AA
100
AcDbEntity
  8
Calque1
 62
     0
100
AcDbMText
 10
6776.382810820925
 20
2501.716089839041
 30
0.0
 40
10.0
 41
0.0
 71
     5
 72
     1
  1
29,57
 73
     1
 44
1.0
  0
POINT
  5
20BE
330
20AA
100
AcDbEntity
  8
Defpoints
 62
     0
100
AcDbPoint
 10
6722.852022189041
 20
2526.096186247897
 30
0.0
  0
POINT
  5
20BF
330
20AA
100
AcDbEntity
  8
Defpoints
 62
     0
100
AcDbPoint
 10
6752.424477487591
 20
2537.186193187114
 30
0.0
  0
POINT
  5
20C0
330
20AA
100
AcDbEntity
  8
Defpoints
 62
     0
100
AcDbPoint
 10
6752.424477487591
 20
2495.257756505708
 30
0.0
  0
ENDBLK
  5
20B6
330
20AA
100
AcDbEntity
  8
0
 62
     5
100
AcDbBlockEnd
  0
BLOCK
  5
20E7
330
20DD
100
AcDbEntity
  8
0
 62
     5
100
AcDbBlockBegin
  2
*D16
 70
     1
 10
0.0
 20
0.0
 30
0.0
  3
*D16
  1

  0
LINE
  5
20DE
330
20DD
100
AcDbEntity
  8
Calque1
 62
     0
370
    -2
100
AcDbLine
 10
6753.049477487592
 20
2569.186193187112
 30
0.0
 11
6833.149492155972
 21
2569.186193187112
 31
0.0
  0
LINE
  5
20DF
330
20DD
100
AcDbEntity
  8
Calque1
 62
     0
370
    -2
100
AcDbLine
 10
6753.049477487592
 20
2537.186193187114
 30
0.0
 11
6833.149492155972
 21
2537.186193187114
 31
0.0
  0
LINE
  5
20E0
330
20DD
100
AcDbEntity
  8
Calque1
 62
     0
370
    -2
100
AcDbLine
 10
6831.899492155972
 20
2566.686193187112
 30
0.0
 11
6831.899492155972
 21
2539.686193187114
 31
0.0
  0
SOLID
  5
20E1
330
20DD
100
AcDbEntity
  8
Calque1
 62
     0
100
AcDbTrace
 10
6831.482825489304
 20
2566.686193187112
 30
0.0
 11
6832.316158822639
 21
2566.686193187112
 31
0.0
 12
6831.899492155972
 22
2569.186193187112
 32
0.0
 13
6831.899492155972
 23
2569.186193187112
 33
0.0
  0
SOLID
  5
20E2
330
20DD
100
AcDbEntity
  8
Calque1
 62
     0
100
AcDbTrace
 10
6831.482825489304
 20
2539.686193187114
 30
0.0
 11
6832.316158822639
 21
2539.686193187114
 31
0.0
 12
6831.899492155972
 22
2537.186193187114
 32
0.0
 13
6831.899492155972
 23
2537.186193187114
 33
0.0
  0
MTEXT
  5
20E3
330
20DD
100
AcDbEntity
  8
Calque1
 62
     0
100
AcDbMText
 10
6826.27449215597
 20
2553.186193187114
 30
0.0
 40
10.0
 41
0.0
 71
     5
 72
     1
  1
32
 11
0.0000000000000001
 21
1.0
 31
0.0
 73
     1
 44
1.0
  0
POINT
  5
20E4
330
20DD
100
AcDbEntity
  8
Defpoints
 62
     0
100
AcDbPoint
 10
6752.424477487591
 20
2569.186193187112
 30
0.0
  0
POINT
  5
20E5
330
20DD
100
AcDbEntity
  8
Defpoints
 62
     0
100
AcDbPoint
 10
6752.424477487591
 20
2537.186193187114
 30
0.0
  0
POINT
  5
20E6
330
20DD
100
AcDbEntity
  8
Defpoints
 62
     0
100
AcDbPoint
 10
6831.899492155972
 20
2537.186193187114
 30
0.0
  0
ENDBLK
  5
20E8
330
20DD
100
AcDbEntity
  8
0
 62
     5
100
AcDbBlockEnd
  0
BLOCK
  5
20FE
330
20F3
100
AcDbEntity
  8
0
 62
     5
100
AcDbBlockBegin
  2
*D17
 70
     1
 10
0.0
 20
0.0
 30
0.0
  3
*D17
  1

  0
LINE
  5
20F4
330
20F3
100
AcDbEntity
  8
Calque1
 62
     0
370
    -2
100
AcDbLine
 10
6739.214622903588
 20
2569.811193187112
 30
0.0
 11
6739.214622903588
 21
2627.923082764951
 31
0.0
  0
LINE
  5
20F5
330
20F3
100
AcDbEntity
  8
Calque1
 62
     0
370
    -2
100
AcDbLine
 10
6752.424477487591
 20
2569.811193187112
 30
0.0
 11
6752.424477487591
 21
2627.923082764951
 31
0.0
  0
LINE
  5
20F6
330
20F3
100
AcDbEntity
  8
Calque1
 62
     0
370
    -2
100
AcDbLine
 10
6741.714622903588
 20
2626.67308276495
 30
0.0
 11
6749.924477487592
 21
2626.67308276495
 31
0.0
  0
LINE
  5
20F7
330
20F3
100
AcDbEntity
  8
Calque1
 62
     0
370
    -2
100
AcDbLine
 10
6752.424477487591
 20
2626.67308276495
 30
0.0
 11
6791.174477487591
 21
2626.67308276495
 31
0.0
  0
SOLID
  5
20F8
330
20F3
100
AcDbEntity
  8
Calque1
 62
     0
100
AcDbTrace
 10
6741.714622903588
 20
2627.089749431617
 30
0.0
 11
6741.714622903588
 21
2626.256416098284
 31
0.0
 12
6739.214622903588
 22
2626.67308276495
 32
0.0
 13
6739.214622903588
 23
2626.67308276495
 33
0.0
  0
SOLID
  5
20F9
330
20F3
100
AcDbEntity
  8
Calque1
 62
     0
100
AcDbTrace
 10
6749.924477487592
 20
2627.089749431617
 30
0.0
 11
6749.924477487592
 21
2626.256416098284
 31
0.0
 12
6752.424477487591
 22
2626.67308276495
 32
0.0
 13
6752.424477487591
 23
2626.67308276495
 33
0.0
  0
MTEXT
  5
20FA
330
20F3
100
AcDbEntity
  8
Calque1
 62
     0
100
AcDbMText
 10
6773.049477487592
 20
2633.131416098284
 30
0.0
 40
10.0
 41
0.0
 71
     5
 72
     1
  1
13,21
 73
     1
 44
1.0
  0
POINT
  5
20FB
330
20F3
100
AcDbEntity
  8
Defpoints
 62
     0
100
AcDbPoint
 10
6739.214622903588
 20
2569.186193187112
 30
0.0
  0
POINT
  5
20FC
330
20F3
100
AcDbEntity
  8
Defpoints
 62
     0
100
AcDbPoint
 10
6752.424477487591
 20
2569.186193187112
 30
0.0
  0
POINT
  5
20FD
330
20F3
100
AcDbEntity
  8
Defpoints
 62
     0
100
AcDbPoint
 10
6752.424477487591
 20
2626.67308276495
 30
0.0
  0
ENDBLK
  5
20FF
330
20F3
100
AcDbEntity
  8
0
 62
     5
100
AcDbBlockEnd
  0
BLOCK
  5
210C
330
2101
100
AcDbEntity
  8
0
 62
     5
100
AcDbBlockBegin
  2
*D18
 70
     1
 10
0.0
 20
0.0
 30
0.0
  3
*D18
  1

  0
LINE
  5
2102
330
2101
100
AcDbEntity
  8
Calque1
 62
     0
370
    -2
100
AcDbLine
 10
6713.639714211552
 20
2517.809773771562
 30
0.0
 11
6695.668765116771
 21
2535.867216843804
 31
0.0
  0
LINE
  5
2103
330
2101
100
AcDbEntity
  8
Calque1
 62
     0
370
    -2
100
AcDbLine
 10
6722.854144137108
 20
2526.980067177285
 30
0.0
 11
6704.883195042326
 21
2545.037510249526
 31
0.0
  0
LINE
  5
2104
330
2101
100
AcDbEntity
  8
Calque1
 62
     0
370
    -2
100
AcDbLine
 10
6698.322529853006
 20
2536.744731928985
 30
0.0
 11
6703.992948268731
 21
2542.387989409431
 31
0.0
  0
LINE
  5
2105
330
2101
100
AcDbEntity
  8
Calque1
 62
     0
370
    -2
100
AcDbLine
 10
6705.764954023646
 20
2544.151507372069
 30
0.0
 11
6717.87366001556
 21
2556.202213450102
 31
0.0
  0
SOLID
  5
2106
330
2101
100
AcDbEntity
  8
Calque1
 62
     0
100
AcDbTrace
 10
6698.028610192567
 20
2537.040066221472
 30
0.0
 11
6698.616449513446
 21
2536.4493976365
 31
0.0
 12
6696.550524098092
 22
2534.981213966347
 32
0.0
 13
6696.550524098092
 23
2534.981213966347
 33
0.0
  0
SOLID
  5
2107
330
2101
100
AcDbEntity
  8
Calque1
 62
     0
100
AcDbTrace
 10
6703.699028608292
 20
2542.683323701916
 30
0.0
 11
6704.286867929171
 21
2542.092655116945
 31
0.0
 12
6705.764954023646
 22
2544.151507372069
 32
0.0
 13
6705.764954023646
 23
2544.151507372069
 33
0.0
  0
MTEXT
  5
2108
330
2101
100
AcDbEntity
  8
Calque1
 62
     0
100
AcDbMText
 10
6708.737394481122
 20
2555.045632340963
 30
0.0
 40
10.0
 41
0.0
 71
     5
 72
     1
  1
13
 11
0.7088023019657703
 21
0.7054071850555712
 31
0.0
 73
     1
 44
1.0
  0
POINT
  5
2109
330
2101
100
AcDbEntity
  8
Defpoints
 62
     0
100
AcDbPoint
 10
6714.080593702213
 20
2517.366772332834
 30
0.0
  0
POINT
  5
210A
330
2101
100
AcDbEntity
  8
Defpoints
 62
     0
100
AcDbPoint
 10
6723.295023627767
 20
2526.537065738557
 30
0.0
  0
POINT
  5
210B
330
2101
100
AcDbEntity
  8
Defpoints
 62
     0
100
AcDbPoint
 10
6705.764954023646
 20
2544.151507372069
 30
0.0
  0
ENDBLK
  5
210D
330
2101
100
AcDbEntity
  8
0
 62
     5
100
AcDbBlockEnd
  0
ENDSEC
  0
SECTION
  2
ENTITIES
  0
LINE
  5
A5
330
1F
100
AcDbEntity
  8
0
 62
     1
100
AcDbLine
 10
2405.311359614212
 20
1278.202912571338
 30
0.0
 11
2600.311359614212
 21
1278.202912571338
 31
0.0
  0
LINE
  5
A6
330
1F
100
AcDbEntity
  8
0
 62
     1
100
AcDbLine
 10
2600.311359614212
 20
1278.202912571338
 30
0.0
 11
2600.311359614212
 21
1270.559505669625
 31
0.0
  0
LINE
  5
A7
330
1F
100
AcDbEntity
  8
0
 62
     3
100
AcDbLine
 10
2600.311359614212
 20
1266.202912571338
 30
0.0
 11
2765.315988908144
 21
1266.202912571338
 31
0.0
  0
LINE
  5
A8
330
1F
100
AcDbEntity
  8
0
 62
     1
100
AcDbLine
 10
2765.315988908144
 20
1266.202912571338
 30
0.0
 11
2765.315988908144
 21
1258.202912571338
 31
0.0
  0
LINE
  5
A9
330
1F
100
AcDbEntity
  8
0
 62
     1
100
AcDbLine
 10
2765.315988908144
 20
1258.202912571338
 30
0.0
 11
2755.313765482474
 21
1258.202912571338
 31
0.0
  0
LINE
  5
AA
330
1F
100
AcDbEntity
  8
0
 62
     1
100
AcDbLine
 10
2755.313765482474
 20
1258.202912571338
 30
0.0
 11
2755.313765482474
 21
1238.202912571338
 31
0.0
  0
LINE
  5
AB
330
1F
100
AcDbEntity
  8
0
 62
     1
100
AcDbLine
 10
2755.313765482474
 20
1238.202912571338
 30
0.0
 11
2885.316296589473
 21
1238.202912571338
 31
0.0
  0
LINE
  5
AC
330
1F
100
AcDbEntity
  8
0
 62
     1
100
AcDbLine
 10
2885.316296589473
 20
1238.202912571338
 30
0.0
 11
2885.316296589473
 21
1253.202912571338
 31
0.0
  0
LINE
  5
AD
330
1F
100
AcDbEntity
  8
0
 62
     1
100
AcDbLine
 10
2885.316296589473
 20
1253.202912571338
 30
0.0
 11
2860.316296589473
 21
1253.202912571338
 31
0.0
  0
LINE
  5
AE
330
1F
100
AcDbEntity
  8
0
 62
     1
100
AcDbLine
 10
2860.316296589473
 20
1253.202912571338
 30
0.0
 11
2860.316296589473
 21
1278.202912571338
 31
0.0
  0
LINE
  5
AF
330
1F
100
AcDbEntity
  8
0
 62
     1
100
AcDbLine
 10
2860.316296589473
 20
1278.202912571338
 30
0.0
 11
2905.311359614212
 21
1278.202912571338
 31
0.0
  0
LINE
  5
B0
330
1F
100
AcDbEntity
  8
0
 62
     1
100
AcDbLine
 10
2905.311359614212
 20
1278.202912571338
 30
0.0
 11
2905.311359614212
 21
1178.200063692797
 31
0.0
  0
LINE
  5
B1
330
1F
100
AcDbEntity
  8
0
 62
     1
100
AcDbLine
 10
2905.311359614212
 20
1178.200063692797
 30
0.0
 11
2670.118410927345
 21
1178.200063692797
 31
0.0
  0
LINE
  5
B3
330
1F
100
AcDbEntity
  8
0
 62
     1
100
AcDbLine
 10
2655.309313669555
 20
1162.95189423447
 30
0.0
 11
2405.311359614212
 21
1163.200966443013
 31
0.0
  0
LINE
  5
B5
330
1F
100
AcDbEntity
  8
0
 62
     1
100
AcDbLine
 10
2430.312126933314
 20
1217.625661650716
 30
0.0
 11
2579.684612643838
 21
1217.625661650716
 31
0.0
  0
CIRCLE
  5
B9
330
1F
100
AcDbEntity
  8
0
 62
     1
100
AcDbCircle
 10
2868.316296589473
 20
1270.202912571338
 30
0.0
 40
2.907583226902738
  0
CIRCLE
  5
C2
330
1F
100
AcDbEntity
  8
0
 62
     1
100
AcDbCircle
 10
2577.395486331711
 20
1152.691279538302
 30
0.0
 40
4.871851109687334
  0
ARC
  5
C3
330
1F
100
AcDbEntity
  8
0
 62
     1
100
AcDbCircle
 10
2577.395486331711
 20
1152.691279538302
 30
0.0
 40
10.91552037599497
100
AcDbArc
 50
210.3149566810642
 51
329.6850433189355
  0
LINE
  5
C5
330
1F
100
AcDbEntity
  8
0
 62
     1
100
AcDbLine
 10
2405.311359614212
 20
1263.202912571338
 30
0.0
 11
2592.954766515924
 21
1263.202912571338
 31
0.0
  0
LINE
  5
D0
330
1F
100
AcDbEntity
  8
0
 62
     1
100
AcDbLine
 10
2600.311359614212
 20
1270.559505669625
 30
0.0
 11
2600.311359614212
 21
1278.202912571338
 31
0.0
  0
LINE
  5
D1
330
1F
100
AcDbEntity
  8
0
 62
     1
100
AcDbLine
 10
2405.311359614212
 20
1163.200966443013
 30
0.0
 11
2405.311359614212
 21
1278.202912571338
 31
0.0
  0
LINE
  5
DB
330
1F
100
AcDbEntity
  8
0
 62
     1
100
AcDbLine
 10
2567.97251254062
 20
1147.181637988147
 30
0.0
 11
2558.605962275569
 21
1163.200966443013
 31
0.0
  0
LINE
  5
DC
330
1F
100
AcDbEntity
  8
0
 62
     1
100
AcDbLine
 10
2586.818460122801
 20
1147.181637988147
 30
0.0
 11
2596.185010387853
 21
1163.200966443013
 31
0.0
  0
LINE
  5
DD
330
1F
100
AcDbEntity
  8
0
 62
     1
100
AcDbLine
 10
2653.399313669555
 20
1163.200966443013
 30
0.0
 11
2653.399313669555
 21
1163.200966443013
 31
0.0
  0
ARC
  5
DF
330
1F
100
AcDbEntity
  8
0
 62
     1
100
AcDbCircle
 10
2670.119254301349
 20
1163.388930338726
 30
0.0
 40
14.8111333780831
100
AcDbArc
 50
90.00326256124193
 51
180.7271440173585
  0
LINE
  5
E0
330
1F
100
AcDbEntity
  8
0
 62
     1
100
AcDbLine
 10
2655.309313669555
 20
1163.200966443013
 30
0.0
 11
2655.309313669555
 21
1170.844373344725
 31
0.0
  0
CIRCLE
  5
FC
330
1F
100
AcDbEntity
  8
0
 62
     1
100
AcDbCircle
 10
2590.314781823175
 20
1270.702912571338
 30
0.0
 40
2.437326142454344
  0
LINE
  5
10C
330
1F
100
AcDbEntity
  8
0
 62
     1
100
AcDbLine
 10
2430.312126933314
 20
1208.787971951055
 30
0.0
 11
2579.684612643838
 21
1208.787971951055
 31
0.0
  0
ARC
  5
110
330
1F
100
AcDbEntity
  8
0
 62
     1
100
AcDbCircle
 10
2579.684612643838
 20
1213.206816800886
 30
0.0
 40
4.418844849830219
100
AcDbArc
 50
270.0
 51
90.0
  0
ARC
  5
115
330
1F
100
AcDbEntity
  8
0
 62
     1
100
AcDbCircle
 10
2430.312126933314
 20
1213.206816800886
 30
0.0
 40
4.418844849830219
100
AcDbArc
 50
90.0
 51
270.0
  0
LINE
  5
1BF
102
{ACAD_REACTORS
330
1D1
102
}
330
1F
100
AcDbEntity
  8
0
 62
     1
100
AcDbLine
 10
2993.461511994597
 20
1462.896513221004
 30
0.0
 11
2993.461511994597
 21
1388.560126823813
 31
0.0
  0
LINE
  5
1C1
102
{ACAD_REACTORS
330
1D1
102
}
330
1F
100
AcDbEntity
  8
0
 62
     1
100
AcDbLine
 10
3032.030390603968
 20
1388.560126823813
 30
0.0
 11
3032.030390603968
 21
1462.896513221004
 31
0.0
  0
LINE
  5
1C2
102
{ACAD_REACTORS
330
1D1
102
}
330
1F
100
AcDbEntity
  8
0
 62
     1
100
AcDbLine
 10
3032.030390603968
 20
1462.896513221004
 30
0.0
 11
2993.461511994597
 21
1462.896513221004
 31
0.0
  0
LINE
  5
1C3
102
{ACAD_REACTORS
330
1D1
102
}
330
1F
100
AcDbEntity
  8
0
 62
     1
100
AcDbLine
 10
2995.37238826389
 20
1410.585722019072
 30
0.0
 11
3030.119514334676
 21
1410.585722019072
 31
0.0
  0
CIRCLE
  5
1C4
102
{ACAD_REACTORS
330
1D1
102
}
330
1F
100
AcDbEntity
  8
0
 62
     1
100
AcDbCircle
 10
3015.291333060203
 20
1387.612635526797
 30
0.0
 40
3.432914258957594
  0
ARC
  5
1C6
102
{ACAD_REACTORS
330
1D1
102
}
330
1F
100
AcDbEntity
  8
0
 62
     1
100
AcDbCircle
 10
2988.709682484456
 20
1373.634825313981
 30
0.0
 40
15.66347690817224
100
AcDbArc
 50
20.95379503146851
 51
72.33987195289585
  0
ARC
  5
1C7
102
{ACAD_REACTORS
330
1D1
102
}
330
1F
100
AcDbEntity
  8
0
 62
     1
100
AcDbCircle
 10
3015.975148557827
 20
1389.156594147792
 30
0.0
 40
16.0663178864584
100
AcDbArc
 50
218.1307342802981
 51
357.8723864472196
  0
LWPOLYLINE
  5
1CE
330
1F
100
AcDbEntity
  8
0
 62
     1
100
AcDbPolyline
 90
        4
 70
     1
 43
0.0
 10
3605.311359614212
 20
1242.198507898021
 10
2940.311359614211
 20
1242.198507898021
 10
2940.311359614211
 20
1202.198507898021
 10
3605.311359614212
 20
1202.198507898021
  0
LWPOLYLINE
  5
26B
330
1F
100
AcDbEntity
  8
0
 62
     1
100
AcDbPolyline
 90
        4
 70
     1
 43
0.0
 10
2405.311359614212
 20
1089.341201992768
 10
2905.311359614212
 20
1089.341201992768
 10
2905.311359614212
 20
1029.341201992768
 10
2405.311359614212
 20
1029.341201992768
  0
LWPOLYLINE
  5
27A
330
1F
100
AcDbEntity
  8
0
 62
     1
100
AcDbPolyline
 90
        4
 70
     1
 43
0.0
 10
2905.311359614212
 20
1084.341201992768
 10
2940.311359614211
 20
1084.341201992768
 10
2940.311359614211
 20
1034.341201992768
 10
2905.311359614212
 20
1034.341201992768
  0
LWPOLYLINE
  5
29A
330
1F
100
AcDbEntity
  8
0
 62
     1
100
AcDbPolyline
 90
        4
 70
     1
 43
0.0
 10
2905.311359614212
 20
1247.198507898021
 10
2940.311359614211
 20
1247.198507898021
 10
2940.311359614211
 20
1197.198507898021
 10
2905.311359614212
 20
1197.198507898021
  0
LWPOLYLINE
  5
29B
330
1F
100
AcDbEntity
  8
0
 62
     1
100
AcDbPolyline
 90
        4
 70
     1
 43
0.0
 10
3605.311359614212
 20
1079.341201992768
 10
2940.311359614211
 20
1079.341201992768
 10
2940.311359614211
 20
1039.341201992768
 10
3605.311359614212
 20
1039.341201992768
  0
CIRCLE
  5
2D3
330
1F
100
AcDbEntity
  8
0
 62
     1
100
AcDbCircle
 10
2565.314781823175
 20
1270.702912571338
 30
0.0
 40
2.437326142454344
  0
CIRCLE
  5
2D4
330
1F
100
AcDbEntity
  8
0
 62
     1
100
AcDbCircle
 10
2540.314781823175
 20
1270.702912571338
 30
0.0
 40
2.437326142454344
  0
CIRCLE
  5
2D5
330
1F
100
AcDbEntity
  8
0
 62
     1
100
AcDbCircle
 10
2515.314781823175
 20
1270.702912571338
 30
0.0
 40
2.437326142454344
  0
CIRCLE
  5
2D6
330
1F
100
AcDbEntity
  8
0
 62
     1
100
AcDbCircle
 10
2490.314781823175
 20
1270.702912571338
 30
0.0
 40
2.437326142454344
  0
CIRCLE
  5
2D7
330
1F
100
AcDbEntity
  8
0
 62
     1
100
AcDbCircle
 10
2465.314781823175
 20
1270.702912571338
 30
0.0
 40
2.437326142454344
  0
CIRCLE
  5
2D8
330
1F
100
AcDbEntity
  8
0
 62
     1
100
AcDbCircle
 10
2440.314781823175
 20
1270.702912571338
 30
0.0
 40
2.437326142454344
  0
CIRCLE
  5
2D9
330
1F
100
AcDbEntity
  8
0
 62
     1
100
AcDbCircle
 10
2415.314781823175
 20
1270.702912571338
 30
0.0
 40
2.437326142454344
  0
CIRCLE
  5
2DA
330
1F
100
AcDbEntity
  8
0
 62
     1
100
AcDbCircle
 10
2590.314781823175
 20
1170.700966443013
 30
0.0
 40
2.437326142454344
  0
CIRCLE
  5
2DB
330
1F
100
AcDbEntity
  8
0
 62
     1
100
AcDbCircle
 10
2565.314781823175
 20
1170.700966443013
 30
0.0
 40
2.437326142454344
  0
CIRCLE
  5
2DC
330
1F
100
AcDbEntity
  8
0
 62
     1
100
AcDbCircle
 10
2540.314781823175
 20
1170.700966443013
 30
0.0
 40
2.437326142454344
  0
CIRCLE
  5
2DD
330
1F
100
AcDbEntity
  8
0
 62
     1
100
AcDbCircle
 10
2515.314781823175
 20
1170.700966443013
 30
0.0
 40
2.437326142454344
  0
CIRCLE
  5
2DE
330
1F
100
AcDbEntity
  8
0
 62
     1
100
AcDbCircle
 10
2490.314781823175
 20
1170.700966443013
 30
0.0
 40
2.437326142454344
  0
CIRCLE
  5
2DF
330
1F
100
AcDbEntity
  8
0
 62
     1
100
AcDbCircle
 10
2465.314781823175
 20
1170.700966443013
 30
0.0
 40
2.437326142454344
  0
CIRCLE
  5
2E0
330
1F
100
AcDbEntity
  8
0
 62
     1
100
AcDbCircle
 10
2440.314781823175
 20
1170.700966443013
 30
0.0
 40
2.437326142454344
  0
CIRCLE
  5
2E1
330
1F
100
AcDbEntity
  8
0
 62
     1
100
AcDbCircle
 10
2415.314781823175
 20
1170.700966443013
 30
0.0
 40
2.437326142454344
  0
CIRCLE
  5
2E2
330
1F
100
AcDbEntity
  8
0
 62
     1
100
AcDbCircle
 10
2615.314781823175
 20
1170.700966443013
 30
0.0
 40
2.437326142454344
  0
CIRCLE
  5
2E3
330
1F
100
AcDbEntity
  8
0
 62
     1
100
AcDbCircle
 10
2640.314781823175
 20
1170.700966443013
 30
0.0
 40
2.437326142454344
  0
LINE
  5
2F6
330
1F
100
AcDbEntity
  8
0
 62
     1
100
AcDbLine
 10
2647.952720571267
 20
1178.200966443012
 30
0.0
 11
2405.311359614212
 21
1178.200966443013
 31
0.0
  0
ARC
  5
2F8
330
1F
100
AcDbEntity
  8
0
 62
     1
100
AcDbCircle
 10
2592.954766515924
 20
1270.559505669625
 30
0.0
 40
7.356593098287476
100
AcDbArc
 50
270.0
 51
0.0
  0
ARC
  5
2F9
330
1F
100
AcDbEntity
  8
0
 62
     1
100
AcDbCircle
 10
2647.952720571267
 20
1170.844373344725
 30
0.0
 40
7.356593098287476
100
AcDbArc
 50
0.0
 51
90.0
  0
LINE
  5
324
330
1F
100
AcDbEntity
  8
0
 62
     1
100
AcDbLine
 10
2600.311359614212
 20
1278.202912571338
 30
0.0
 11
2600.311359614212
 21
1266.202912571338
 31
0.0
  0
DIMENSION
  5
3C0
330
1F
100
AcDbEntity
  8
0
 62
     1
100
AcDbDimension
  2
*D1
 10
2378.296993406281
 20
1178.200966443013
 30
0.0
 11
2372.67199340628
 21
1170.700966443013
 31
0.0
 70
    32
 71
     5
 42
15.0
  3
ISO-25
100
AcDbAlignedDimension
 13
2404.686359614212
 23
1163.200966443013
 33
0.0
 14
2405.311359614212
 24
1178.200966443013
 34
0.0
 50
90.0
100
AcDbRotatedDimension
  0
DIMENSION
  5
5CF
330
1F
100
AcDbEntity
  8
0
 62
     1
100
AcDbDimension
  2
*D2
 10
2868.316296589473
 20
1304.343725225978
 30
0.0
 11
2734.313828101843
 21
1309.968725225978
 31
0.0
 70
    32
 71
     5
 42
268.0049369752609
  3
ISO-25
100
AcDbAlignedDimension
 13
2600.311359614212
 23
1278.202912571338
 33
0.0
 14
2868.316296589473
 24
1270.202912571338
 34
0.0
100
AcDbRotatedDimension
  0
LINE
  5
627
102
{ACAD_REACTORS
330
6B3
102
}
330
1F
100
AcDbEntity
  8
0
 62
     1
100
AcDbLine
 10
2600.311359614212
 20
895.1076525969693
 30
0.0
 11
2785.316296589473
 21
895.1076525969693
 31
0.0
  0
LINE
  5
628
102
{ACAD_REACTORS
330
6B3
102
}
330
1F
100
AcDbEntity
  8
0
 62
     1
100
AcDbLine
 10
2845.316296589473
 20
895.1076525969693
 30
0.0
 11
2860.316296589473
 21
895.1076525969693
 31
0.0
  0
LINE
  5
629
102
{ACAD_REACTORS
330
6B3
102
}
330
1F
100
AcDbEntity
  8
0
 62
     1
100
AcDbLine
 10
2860.316296589473
 20
895.1076525969693
 30
0.0
 11
2860.316296589473
 21
883.1076525969692
 31
0.0
  0
LINE
  5
62B
102
{ACAD_REACTORS
330
6B3
102
}
330
1F
100
AcDbEntity
  8
0
 62
     1
100
AcDbLine
 10
2600.311359614212
 20
895.1076525969693
 30
0.0
 11
2600.311359614212
 21
831.1076525969692
 31
0.0
  0
LINE
  5
62C
102
{ACAD_REACTORS
330
6B3
102
}
330
1F
100
AcDbEntity
  8
0
 62
     1
100
AcDbLine
 10
2876.316296589473
 20
843.1076525969693
 30
0.0
 11
2876.316296589473
 21
883.1076525969692
 31
0.0
  0
LINE
  5
62D
102
{ACAD_REACTORS
330
6B3
102
}
330
1F
100
AcDbEntity
  8
0
 62
     1
100
AcDbLine
 10
2795.316296589473
 20
905.1076525969692
 30
0.0
 11
2835.316296589473
 21
905.1076525969692
 31
0.0
  0
ARC
  5
62F
102
{ACAD_REACTORS
330
6B3
102
}
330
1F
100
AcDbEntity
  8
0
 62
     1
100
AcDbCircle
 10
2785.316296589473
 20
905.1076525969692
 30
0.0
 40
10.0
100
AcDbArc
 50
270.0
 51
0.0
  0
LINE
  5
637
102
{ACAD_REACTORS
330
6B3
102
}
330
1F
100
AcDbEntity
  8
0
 62
     1
100
AcDbLine
 10
2868.316296589473
 20
830.285199290674
 30
0.0
 11
2868.316296589473
 21
895.9301059032645
 31
0.0
  0
ARC
  5
699
102
{ACAD_REACTORS
330
6B3
102
}
330
1F
100
AcDbEntity
  8
0
 62
     1
100
AcDbCircle
 10
2845.316296589473
 20
905.1076525969692
 30
0.0
 40
10.0
100
AcDbArc
 50
180.0
 51
270.0
  0
LINE
  5
6AB
102
{ACAD_REACTORS
330
6B3
102
}
330
1F
100
AcDbEntity
  8
0
 62
     1
100
AcDbLine
 10
2876.316296589473
 20
883.1076525969692
 30
0.0
 11
2860.316296589473
 21
883.1076525969692
 31
0.0
  0
LINE
  5
6AC
102
{ACAD_REACTORS
330
6B3
102
}
330
1F
100
AcDbEntity
  8
0
 62
     1
100
AcDbLine
 10
2600.311359614212
 20
831.1076525969692
 30
0.0
 11
2785.316296589473
 21
831.1076525969692
 31
0.0
  0
LINE
  5
6AD
102
{ACAD_REACTORS
330
6B3
102
}
330
1F
100
AcDbEntity
  8
0
 62
     1
100
AcDbLine
 10
2845.316296589473
 20
831.1076525969692
 30
0.0
 11
2860.316296589473
 21
831.1076525969692
 31
0.0
  0
LINE
  5
6AE
102
{ACAD_REACTORS
330
6B3
102
}
330
1F
100
AcDbEntity
  8
0
 62
     1
100
AcDbLine
 10
2860.316296589473
 20
831.1076525969692
 30
0.0
 11
2860.316296589473
 21
843.1076525969693
 31
0.0
  0
LINE
  5
6AF
102
{ACAD_REACTORS
330
6B3
102
}
330
1F
100
AcDbEntity
  8
0
 62
     1
100
AcDbLine
 10
2795.316296589473
 20
821.1076525969692
 30
0.0
 11
2835.316296589473
 21
821.1076525969692
 31
0.0
  0
ARC
  5
6B0
102
{ACAD_REACTORS
330
6B3
102
}
330
1F
100
AcDbEntity
  8
0
 62
     1
100
AcDbCircle
 10
2785.316296589473
 20
821.1076525969692
 30
0.0
 40
10.0
100
AcDbArc
 50
0.0
 51
90.00000000000003
  0
ARC
  5
6B1
102
{ACAD_REACTORS
330
6B3
102
}
330
1F
100
AcDbEntity
  8
0
 62
     1
100
AcDbCircle
 10
2845.316296589473
 20
821.1076525969692
 30
0.0
 40
10.0
100
AcDbArc
 50
90.00000000000003
 51
180.0
  0
LINE
  5
6B2
102
{ACAD_REACTORS
330
6B3
102
}
330
1F
100
AcDbEntity
  8
0
 62
     1
100
AcDbLine
 10
2876.316296589473
 20
843.1076525969693
 30
0.0
 11
2860.316296589473
 21
843.1076525969693
 31
0.0
  0
LINE
  5
7D0
330
1F
100
AcDbEntity
  8
0
 62
     1
100
AcDbLine
 10
2354.30461810387
 20
2676.129380304996
 30
0.0
 11
2579.30461810387
 21
2676.131715658986
 31
0.0
  0
LINE
  5
7D1
330
1F
100
AcDbEntity
  8
0
 62
     1
100
AcDbLine
 10
2969.304618103869
 20
2674.629380304996
 30
0.0
 11
2969.304618103869
 21
2554.629380304996
 31
0.0
  0
LINE
  5
7D2
330
1F
100
AcDbEntity
  8
0
 62
     1
100
AcDbLine
 10
2669.30461810387
 20
2533.129380304997
 30
0.0
 11
2354.30461810387
 21
2533.129380304997
 31
0.0
  0
LINE
  5
7D3
330
1F
100
AcDbEntity
  8
0
 62
     1
100
AcDbLine
 10
2369.304618103869
 20
2534.629380304997
 30
0.0
 11
2369.304618103869
 21
2674.629380304996
 31
0.0
  0
LINE
  5
7D4
330
1F
100
AcDbEntity
  8
0
 62
     1
100
AcDbLine
 10
2969.304618103869
 20
2554.629380304996
 30
0.0
 11
2689.30461810387
 21
2554.629380304996
 31
0.0
  0
LINE
  5
7D5
330
1F
100
AcDbEntity
  8
0
 62
     1
100
AcDbLine
 10
2369.304618103869
 20
2656.129380304996
 30
0.0
 11
2569.30461810387
 21
2656.131715658986
 31
0.0
  0
LINE
  5
7D7
330
1F
100
AcDbEntity
  8
0
 62
     1
100
AcDbLine
 10
2669.30461810387
 20
2543.129380304996
 30
0.0
 11
2669.30461810387
 21
2533.129380304997
 31
0.0
  0
LINE
  5
7D8
330
1F
100
AcDbEntity
  8
0
 62
     1
100
AcDbLine
 10
2579.30461810387
 20
2666.131715658986
 30
0.0
 11
2579.30461810387
 21
2676.131715658986
 31
0.0
  0
LINE
  5
800
330
1F
100
AcDbEntity
  8
0
 62
     1
100
AcDbLine
 10
2969.304618103869
 20
2674.629380304996
 30
0.0
 11
2914.304618103869
 21
2674.629380304996
 31
0.0
  0
LINE
  5
82A
330
1F
100
AcDbEntity
  8
0
 62
     1
100
AcDbLine
 10
2914.304618103869
 20
2674.629380304996
 30
0.0
 11
2914.304618103869
 21
2644.629380304996
 31
0.0
  0
LINE
  5
82B
330
1F
100
AcDbEntity
  8
0
 62
     1
100
AcDbLine
 10
2914.304618103869
 20
2644.629380304996
 30
0.0
 11
2944.30461810387
 21
2644.629380304996
 31
0.0
  0
LINE
  5
82C
330
1F
100
AcDbEntity
  8
0
 62
     1
100
AcDbLine
 10
2944.30461810387
 20
2644.629380304996
 30
0.0
 11
2944.30461810387
 21
2626.629380304996
 31
0.0
  0
LINE
  5
82D
330
1F
100
AcDbEntity
  8
0
 62
     1
100
AcDbLine
 10
2944.30461810387
 20
2626.629380304996
 30
0.0
 11
2789.303958127475
 21
2626.629380304996
 31
0.0
  0
LINE
  5
86D
330
1F
100
AcDbEntity
  8
0
 62
     1
100
AcDbLine
 10
2789.303958127475
 20
2626.629380304996
 30
0.0
 11
2789.303958127475
 21
2649.629380304996
 31
0.0
  0
LINE
  5
87C
330
1F
100
AcDbEntity
  8
0
 62
     1
100
AcDbLine
 10
2789.303958127475
 20
2649.629380304996
 30
0.0
 11
2804.303958127475
 21
2649.629380304996
 31
0.0
  0
LINE
  5
87D
330
1F
100
AcDbEntity
  8
0
 62
     1
100
AcDbLine
 10
2804.303958127475
 20
2649.629380304996
 30
0.0
 11
2804.303958127475
 21
2664.629380304996
 31
0.0
  0
LINE
  5
87E
330
1F
100
AcDbEntity
  8
0
 62
     1
100
AcDbLine
 10
2804.303958127475
 20
2664.629380304996
 30
0.0
 11
2579.30461810387
 21
2664.631715658986
 31
0.0
  0
CIRCLE
  5
8A7
330
1F
100
AcDbEntity
  8
0
 62
     1
100
AcDbCircle
 10
2924.30461810387
 20
2664.629380304996
 30
0.0
 40
4.0
  0
LINE
  5
8A8
330
1F
100
AcDbEntity
  8
0
 62
     1
100
AcDbLine
 10
2659.304618103869
 20
2553.129380304996
 30
0.0
 11
2369.304618103869
 21
2553.129380304996
 31
0.0
  0
CIRCLE
  5
8A9
330
1F
100
AcDbEntity
  8
0
 62
     1
100
AcDbCircle
 10
3081.529286554327
 20
2678.563431597092
 30
0.0
 40
5.846221331624801
  0
ARC
  5
8AA
330
1F
100
AcDbEntity
  8
0
 62
     1
100
AcDbCircle
 10
3081.529286554327
 20
2678.563431597092
 30
0.0
 40
13.09862445119397
100
AcDbArc
 50
210.3149566810642
 51
329.6850433189355
  0
LINE
  5
8AB
330
1F
100
AcDbEntity
  8
0
 62
     1
100
AcDbLine
 10
3070.221718005017
 20
2671.951861736906
 30
0.0
 11
3058.981857686956
 21
2691.175055882745
 31
0.0
  0
LINE
  5
8AC
330
1F
100
AcDbEntity
  8
0
 62
     1
100
AcDbLine
 10
3092.836855103634
 20
2671.951861736906
 30
0.0
 11
3104.076715421699
 21
2691.175055882745
 31
0.0
  0
CIRCLE
  5
8D7
330
1F
100
AcDbEntity
  8
0
 62
     1
100
AcDbCircle
 10
2561.308724754626
 20
2666.131715658986
 30
0.0
 40
2.924791370945213
  0
CIRCLE
  5
8D8
330
1F
100
AcDbEntity
  8
0
 62
     1
100
AcDbCircle
 10
2531.308724754626
 20
2666.131715658986
 30
0.0
 40
2.924791370945213
  0
CIRCLE
  5
8D9
330
1F
100
AcDbEntity
  8
0
 62
     1
100
AcDbCircle
 10
2501.308724754626
 20
2666.131715658986
 30
0.0
 40
2.924791370945213
  0
CIRCLE
  5
8DA
330
1F
100
AcDbEntity
  8
0
 62
     1
100
AcDbCircle
 10
2471.308724754626
 20
2666.131715658986
 30
0.0
 40
2.924791370945213
  0
CIRCLE
  5
8DB
330
1F
100
AcDbEntity
  8
0
 62
     1
100
AcDbCircle
 10
2441.308724754626
 20
2666.131715658986
 30
0.0
 40
2.924791370945213
  0
CIRCLE
  5
8DC
330
1F
100
AcDbEntity
  8
0
 62
     1
100
AcDbCircle
 10
2411.308724754626
 20
2666.131715658986
 30
0.0
 40
2.924791370945213
  0
CIRCLE
  5
8DD
330
1F
100
AcDbEntity
  8
0
 62
     1
100
AcDbCircle
 10
2381.308724754626
 20
2666.131715658986
 30
0.0
 40
2.924791370945213
  0
CIRCLE
  5
8DE
330
1F
100
AcDbEntity
  8
0
 62
     1
100
AcDbCircle
 10
2591.308724754626
 20
2543.129380304996
 30
0.0
 40
2.924791370945213
  0
CIRCLE
  5
8DF
330
1F
100
AcDbEntity
  8
0
 62
     1
100
AcDbCircle
 10
2561.308724754626
 20
2543.129380304996
 30
0.0
 40
2.924791370945213
  0
CIRCLE
  5
8E0
330
1F
100
AcDbEntity
  8
0
 62
     1
100
AcDbCircle
 10
2531.308724754626
 20
2543.129380304996
 30
0.0
 40
2.924791370945213
  0
CIRCLE
  5
8E1
330
1F
100
AcDbEntity
  8
0
 62
     1
100
AcDbCircle
 10
2501.308724754626
 20
2543.129380304996
 30
0.0
 40
2.924791370945213
  0
CIRCLE
  5
8E2
330
1F
100
AcDbEntity
  8
0
 62
     1
100
AcDbCircle
 10
2471.308724754626
 20
2543.129380304996
 30
0.0
 40
2.924791370945213
  0
CIRCLE
  5
8E3
330
1F
100
AcDbEntity
  8
0
 62
     1
100
AcDbCircle
 10
2441.308724754626
 20
2543.129380304996
 30
0.0
 40
2.924791370945213
  0
CIRCLE
  5
8E4
330
1F
100
AcDbEntity
  8
0
 62
     1
100
AcDbCircle
 10
2411.308724754626
 20
2543.129380304996
 30
0.0
 40
2.924791370945213
  0
CIRCLE
  5
8E5
330
1F
100
AcDbEntity
  8
0
 62
     1
100
AcDbCircle
 10
2381.308724754626
 20
2543.129380304996
 30
0.0
 40
2.924791370945213
  0
CIRCLE
  5
8E6
330
1F
100
AcDbEntity
  8
0
 62
     1
100
AcDbCircle
 10
2621.308724754626
 20
2543.129380304996
 30
0.0
 40
2.924791370945213
  0
CIRCLE
  5
8E7
330
1F
100
AcDbEntity
  8
0
 62
     1
100
AcDbCircle
 10
2651.308724754626
 20
2543.129380304996
 30
0.0
 40
2.924791370945213
  0
ARC
  5
8F7
330
1F
100
AcDbEntity
  8
0
 62
     1
100
AcDbCircle
 10
2659.304618103869
 20
2543.129380304996
 30
0.0
 40
10.0
100
AcDbArc
 50
0.0
 51
90.0
  0
ARC
  5
8F9
330
1F
100
AcDbEntity
  8
0
 62
     1
100
AcDbCircle
 10
2689.30461810387
 20
2534.629380304997
 30
0.0
 40
20.0
100
AcDbArc
 50
90.0
 51
180.0
  0
LWPOLYLINE
  5
9D4
330
1F
100
AcDbEntity
  8
0
 62
     1
100
AcDbPolyline
 90
        4
 70
     1
 43
0.0
 10
2369.304618103869
 20
2062.391253126093
 10
2969.304618103869
 20
2062.391253126093
 10
2969.304618103869
 20
1982.391253126093
 10
2369.304618103869
 20
1982.391253126093
  0
LINE
  5
A07
102
{ACAD_REACTORS
330
D5A
102
}
330
1F
100
AcDbEntity
  8
0
 62
     1
100
AcDbLine
 10
2369.304618103869
 20
2901.229080304018
 30
0.0
 11
2579.30461810387
 21
2901.229080304019
 31
0.0
  0
LINE
  5
A08
102
{ACAD_REACTORS
330
D5A
102
}
330
1F
100
AcDbEntity
  8
0
 62
     1
100
AcDbLine
 10
2369.304618103869
 20
2981.229080304018
 30
0.0
 11
2579.30461810387
 21
2981.229080304018
 31
0.0
  0
LINE
  5
A51
102
{ACAD_REACTORS
330
A95
102
}
330
1F
100
AcDbEntity
  8
0
 62
     1
100
AcDbLine
 10
2369.304618103869
 20
2054.500980792912
 30
0.0
 11
2369.304618103869
 21
1990.281525459273
 31
0.0
  0
LINE
  5
A55
102
{ACAD_REACTORS
330
A95
102
}
330
1F
100
AcDbEntity
  8
0
 62
     1
100
AcDbLine
 10
2326.763528729565
 20
2089.945728564495
 30
0.0
 11
2336.054578149767
 21
2089.945728564495
 31
0.0
  0
ARC
  5
A57
102
{ACAD_REACTORS
330
A95
102
}
330
1F
100
AcDbEntity
  8
0
 62
     1
100
AcDbCircle
 10
2336.054578149767
 20
2056.695688610391
 30
0.0
 40
33.25003995410381
100
AcDbArc
 50
0.0
 51
90.0
  0
LINE
  5
A58
102
{ACAD_REACTORS
330
A95
102
}
330
1F
100
AcDbEntity
  8
0
 62
     1
100
AcDbLine
 10
2369.304618103869
 20
2056.695688610391
 30
0.0
 11
2369.304618103869
 21
2054.500980792912
 31
0.0
  0
ARC
  5
A59
102
{ACAD_REACTORS
330
A95
102
}
330
1F
100
AcDbEntity
  8
0
 62
     1
100
AcDbCircle
 10
2336.054578149767
 20
1988.086817641795
 30
0.0
 40
33.25003995410381
100
AcDbArc
 50
270.0
 51
0.0
  0
LINE
  5
A5C
102
{ACAD_REACTORS
330
A95
102
}
330
1F
100
AcDbEntity
  8
0
 62
     1
100
AcDbLine
 10
2326.763528729565
 20
1954.836777687691
 30
0.0
 11
2336.054578149767
 21
1954.836777687691
 31
0.0
  0
LINE
  5
A5E
102
{ACAD_REACTORS
330
A95
102
}
330
1F
100
AcDbEntity
  8
0
 62
     1
100
AcDbLine
 10
2369.304618103869
 20
1988.086817641795
 30
0.0
 11
2369.304618103869
 21
1990.281525459273
 31
0.0
  0
ARC
  5
A72
102
{ACAD_REACTORS
330
A95
102
}
330
1F
100
AcDbEntity
  8
0
 62
     1
100
AcDbCircle
 10
2336.054578149767
 20
2056.695688610391
 30
0.0
 40
18.25003995410381
100
AcDbArc
 50
0.0
 51
90.0
  0
LINE
  5
A73
102
{ACAD_REACTORS
330
A95
102
}
330
1F
100
AcDbEntity
  8
0
 62
     1
100
AcDbLine
 10
2354.30461810387
 20
2056.695688610391
 30
0.0
 11
2354.30461810387
 21
1988.086817641795
 31
0.0
  0
ARC
  5
A74
102
{ACAD_REACTORS
330
A95
102
}
330
1F
100
AcDbEntity
  8
0
 62
     1
100
AcDbCircle
 10
2336.054578149767
 20
1988.086817641795
 30
0.0
 40
18.25003995410381
100
AcDbArc
 50
270.0
 51
0.0
  0
LINE
  5
A75
102
{ACAD_REACTORS
330
A95
102
}
330
1F
100
AcDbEntity
  8
0
 62
     1
100
AcDbLine
 10
2336.054578149767
 20
2074.945728564494
 30
0.0
 11
2326.845243781716
 21
2074.945728564494
 31
0.0
  0
CIRCLE
  5
A92
102
{ACAD_REACTORS
330
A95
102
}
330
1F
100
AcDbEntity
  8
0
 62
     1
100
AcDbCircle
 10
2316.80461810387
 20
1962.391253126093
 30
0.0
 40
12.5
  0
CIRCLE
  5
A93
102
{ACAD_REACTORS
330
A95
102
}
330
1F
100
AcDbEntity
  8
0
 62
     1
100
AcDbCircle
 10
2316.80461810387
 20
2082.391253126093
 30
0.0
 40
12.5
  0
LINE
  5
A94
102
{ACAD_REACTORS
330
A95
102
}
330
1F
100
AcDbEntity
  8
0
 62
     1
100
AcDbLine
 10
2336.054578149767
 20
1969.836777687692
 30
0.0
 11
2326.845243781716
 21
1969.836777687692
 31
0.0
  0
LINE
  5
AAC
330
1F
100
AcDbEntity
  8
0
 62
     1
100
AcDbLine
 10
2369.304618103869
 20
2674.629380304996
 30
0.0
 11
2304.30461810387
 21
2674.629380304996
 31
0.0
  0
LINE
  5
AB1
330
1F
100
AcDbEntity
  8
0
 62
     1
100
AcDbLine
 10
2369.304618103869
 20
2672.629380304996
 30
0.0
 11
2304.30461810387
 21
2672.629380304996
 31
0.0
  0
LINE
  5
AB2
330
1F
100
AcDbEntity
  8
0
 62
     1
100
AcDbLine
 10
2354.30461810387
 20
2676.129380304996
 30
0.0
 11
2354.30461810387
 21
2674.629380304996
 31
0.0
  0
LINE
  5
AB4
330
1F
100
AcDbEntity
  8
0
 62
     1
100
AcDbLine
 10
2369.304618103869
 20
2534.629380304997
 30
0.0
 11
2304.30461810387
 21
2534.629380304997
 31
0.0
  0
LINE
  5
AB5
330
1F
100
AcDbEntity
  8
0
 62
     1
100
AcDbLine
 10
2369.304618103869
 20
2536.629380304996
 30
0.0
 11
2304.30461810387
 21
2536.629380304996
 31
0.0
  0
LINE
  5
AB6
330
1F
100
AcDbEntity
  8
0
 62
     1
100
AcDbLine
 10
2354.30461810387
 20
2533.129380304997
 30
0.0
 11
2354.30461810387
 21
2534.629380304997
 31
0.0
  0
ARC
  5
AB7
330
1F
100
AcDbEntity
  8
0
 62
     1
100
AcDbCircle
 10
3073.096284770474
 20
2604.629380304999
 30
0.0
 40
771.7931243124771
100
AcDbArc
 50
174.9453145697312
 51
185.054685430269
  0
LINE
  5
ABA
330
1F
100
AcDbEntity
  8
0
 62
     1
100
AcDbLine
 10
2304.30461810387
 20
2536.629380304997
 30
0.0
 11
2304.30461810387
 21
2534.629380304997
 31
0.0
  0
LINE
  5
ABB
330
1F
100
AcDbEntity
  8
0
 62
     1
100
AcDbLine
 10
2304.30461810387
 20
2674.629380304996
 30
0.0
 11
2304.30461810387
 21
2672.629380304996
 31
0.0
  0
ARC
  5
ABC
330
1F
100
AcDbEntity
  8
0
 62
     1
100
AcDbCircle
 10
1560.512951437263
 20
2604.629380304999
 30
0.0
 40
771.7931243124803
100
AcDbArc
 50
354.9453145697309
 51
5.054685430268654
  0
CIRCLE
  5
ABF
102
{ACAD_REACTORS
330
D5A
102
}
330
1F
100
AcDbEntity
  8
0
 62
     1
100
AcDbCircle
 10
2561.308724754626
 20
2891.231415658008
 30
0.0
 40
2.924791370945213
  0
CIRCLE
  5
AC0
102
{ACAD_REACTORS
330
D5A
102
}
330
1F
100
AcDbEntity
  8
0
 62
     1
100
AcDbCircle
 10
2531.308724754626
 20
2891.231415658008
 30
0.0
 40
2.924791370945213
  0
CIRCLE
  5
AC1
102
{ACAD_REACTORS
330
D5A
102
}
330
1F
100
AcDbEntity
  8
0
 62
     1
100
AcDbCircle
 10
2501.308724754626
 20
2891.231415658008
 30
0.0
 40
2.924791370945213
  0
CIRCLE
  5
AC2
102
{ACAD_REACTORS
330
D5A
102
}
330
1F
100
AcDbEntity
  8
0
 62
     1
100
AcDbCircle
 10
2471.308724754626
 20
2891.231415658008
 30
0.0
 40
2.924791370945213
  0
CIRCLE
  5
AC3
102
{ACAD_REACTORS
330
D5A
102
}
330
1F
100
AcDbEntity
  8
0
 62
     1
100
AcDbCircle
 10
2441.308724754626
 20
2891.231415658008
 30
0.0
 40
2.924791370945213
  0
CIRCLE
  5
AC4
102
{ACAD_REACTORS
330
D5A
102
}
330
1F
100
AcDbEntity
  8
0
 62
     1
100
AcDbCircle
 10
2411.308724754626
 20
2891.231415658008
 30
0.0
 40
2.924791370945213
  0
CIRCLE
  5
AC5
102
{ACAD_REACTORS
330
D5A
102
}
330
1F
100
AcDbEntity
  8
0
 62
     1
100
AcDbCircle
 10
2381.308724754626
 20
2891.231415658008
 30
0.0
 40
2.924791370945213
  0
ARC
  5
ACA
102
{ACAD_REACTORS
330
D5A
102
}
330
1F
100
AcDbEntity
  8
0
 62
     1
100
AcDbCircle
 10
2569.30461810387
 20
2891.231415658008
 30
0.0
 40
10.0
100
AcDbArc
 50
270.0
 51
0.0
  0
LINE
  5
ACB
102
{ACAD_REACTORS
330
D5A
102
}
330
1F
100
AcDbEntity
  8
0
 62
     1
100
AcDbLine
 10
2369.304618103869
 20
3001.229080304018
 30
0.0
 11
2569.520723693595
 21
3001.229080304018
 31
0.0
  0
LINE
  5
ACC
102
{ACAD_REACTORS
330
D5A
102
}
330
1F
100
AcDbEntity
  8
0
 62
     1
100
AcDbLine
 10
2579.30461810387
 20
2991.231415658008
 30
0.0
 11
2579.30461810387
 21
2891.231415658008
 31
0.0
  0
LINE
  5
ACD
102
{ACAD_REACTORS
330
D5A
102
}
330
1F
100
AcDbEntity
  8
0
 62
     1
100
AcDbLine
 10
2569.30461810387
 20
2881.231415658008
 30
0.0
 11
2369.304618103869
 21
2881.229080304018
 31
0.0
  0
LINE
  5
ACE
102
{ACAD_REACTORS
330
D5A
102
}
330
1F
100
AcDbEntity
  8
0
 62
     1
100
AcDbLine
 10
2369.304618103869
 20
2881.229080304018
 30
0.0
 11
2369.30461810387
 21
2916.229080304018
 31
0.0
  0
CIRCLE
  5
ACF
102
{ACAD_REACTORS
330
D5A
102
}
330
1F
100
AcDbEntity
  8
0
 62
     1
100
AcDbCircle
 10
2561.308724754626
 20
2991.226744950029
 30
0.0
 40
2.924791370945213
  0
CIRCLE
  5
AD0
102
{ACAD_REACTORS
330
D5A
102
}
330
1F
100
AcDbEntity
  8
0
 62
     1
100
AcDbCircle
 10
2531.308724754626
 20
2991.226744950029
 30
0.0
 40
2.924791370945213
  0
CIRCLE
  5
AD1
102
{ACAD_REACTORS
330
D5A
102
}
330
1F
100
AcDbEntity
  8
0
 62
     1
100
AcDbCircle
 10
2501.308724754626
 20
2991.226744950029
 30
0.0
 40
2.924791370945213
  0
CIRCLE
  5
AD2
102
{ACAD_REACTORS
330
D5A
102
}
330
1F
100
AcDbEntity
  8
0
 62
     1
100
AcDbCircle
 10
2471.308724754626
 20
2991.226744950029
 30
0.0
 40
2.924791370945213
  0
CIRCLE
  5
AD3
102
{ACAD_REACTORS
330
D5A
102
}
330
1F
100
AcDbEntity
  8
0
 62
     1
100
AcDbCircle
 10
2441.308724754626
 20
2991.226744950029
 30
0.0
 40
2.924791370945213
  0
CIRCLE
  5
AD4
102
{ACAD_REACTORS
330
D5A
102
}
330
1F
100
AcDbEntity
  8
0
 62
     1
100
AcDbCircle
 10
2411.308724754626
 20
2991.226744950029
 30
0.0
 40
2.924791370945213
  0
CIRCLE
  5
AD5
102
{ACAD_REACTORS
330
D5A
102
}
330
1F
100
AcDbEntity
  8
0
 62
     1
100
AcDbCircle
 10
2381.308724754626
 20
2991.226744950029
 30
0.0
 40
2.924791370945213
  0
ARC
  5
AD6
102
{ACAD_REACTORS
330
D5A
102
}
330
1F
100
AcDbEntity
  8
0
 62
     1
100
AcDbCircle
 10
2569.30461810387
 20
2991.231415658008
 30
0.0
 40
10.0
100
AcDbArc
 50
0.0
 51
90.00000000000003
  0
LINE
  5
AD7
102
{ACAD_REACTORS
330
D5A
102
}
330
1F
100
AcDbEntity
  8
0
 62
     1
100
AcDbLine
 10
2369.304618103869
 20
2916.229080304018
 30
0.0
 11
2354.30461810387
 21
2916.229080304018
 31
0.0
  0
LINE
  5
AD8
102
{ACAD_REACTORS
330
D5A
102
}
330
1F
100
AcDbEntity
  8
0
 62
     1
100
AcDbLine
 10
2369.304618103869
 20
2966.229080304018
 30
0.0
 11
2354.30461810387
 21
2966.229080304018
 31
0.0
  0
LINE
  5
AD9
102
{ACAD_REACTORS
330
D5A
102
}
330
1F
100
AcDbEntity
  8
0
 62
     1
100
AcDbLine
 10
2354.30461810387
 20
2966.229080304018
 30
0.0
 11
2354.30461810387
 21
2916.229080304018
 31
0.0
  0
LINE
  5
ADA
102
{ACAD_REACTORS
330
D5A
102
}
330
1F
100
AcDbEntity
  8
0
 62
     1
100
AcDbLine
 10
2369.304618103869
 20
2966.229080304019
 30
0.0
 11
2369.304618103869
 21
3001.229080304018
 31
0.0
  0
CIRCLE
  5
ADD
102
{ACAD_REACTORS
330
D5A
102
}
330
1F
100
AcDbEntity
  8
0
 62
     1
100
AcDbCircle
 10
2361.80461810387
 20
2926.229080304018
 30
0.0
 40
3.0
  0
CIRCLE
  5
ADE
102
{ACAD_REACTORS
330
D5A
102
}
330
1F
100
AcDbEntity
  8
0
 62
     1
100
AcDbCircle
 10
2361.80461810387
 20
2956.229080304018
 30
0.0
 40
3.0
  0
LINE
  5
ADF
330
1F
100
AcDbEntity
  8
0
 62
     1
100
AcDbLine
 10
2369.304618103869
 20
3061.468953203503
 30
0.0
 11
2669.304618103869
 21
3061.468953203503
 31
0.0
  0
LINE
  5
AE0
330
1F
100
AcDbEntity
  8
0
 62
     1
100
AcDbLine
 10
2369.304618103869
 20
3141.468953203503
 30
0.0
 11
2669.304618103869
 21
3141.468953203503
 31
0.0
  0
CIRCLE
  5
AE2
330
1F
100
AcDbEntity
  8
0
 62
     1
100
AcDbCircle
 10
2531.308724754626
 20
3051.471288557493
 30
0.0
 40
2.924791370945213
  0
CIRCLE
  5
AE3
330
1F
100
AcDbEntity
  8
0
 62
     1
100
AcDbCircle
 10
2501.308724754626
 20
3051.471288557493
 30
0.0
 40
2.924791370945213
  0
CIRCLE
  5
AE4
330
1F
100
AcDbEntity
  8
0
 62
     1
100
AcDbCircle
 10
2471.308724754626
 20
3051.471288557493
 30
0.0
 40
2.924791370945213
  0
CIRCLE
  5
AE5
330
1F
100
AcDbEntity
  8
0
 62
     1
100
AcDbCircle
 10
2441.308724754626
 20
3051.471288557493
 30
0.0
 40
2.924791370945213
  0
CIRCLE
  5
AE6
330
1F
100
AcDbEntity
  8
0
 62
     1
100
AcDbCircle
 10
2411.308724754626
 20
3051.471288557493
 30
0.0
 40
2.924791370945213
  0
CIRCLE
  5
AE7
330
1F
100
AcDbEntity
  8
0
 62
     1
100
AcDbCircle
 10
2381.308724754626
 20
3051.471288557493
 30
0.0
 40
2.924791370945213
  0
ARC
  5
AE8
330
1F
100
AcDbEntity
  8
0
 62
     1
100
AcDbCircle
 10
2659.304618103869
 20
3051.468953203503
 30
0.0
 40
10.0
100
AcDbArc
 50
270.0
 51
0.0
  0
LINE
  5
AE9
330
1F
100
AcDbEntity
  8
0
 62
     1
100
AcDbLine
 10
2369.304618103869
 20
3161.468953203503
 30
0.0
 11
2659.304618103869
 21
3161.468953203503
 31
0.0
  0
LINE
  5
AEA
330
1F
100
AcDbEntity
  8
0
 62
     1
100
AcDbLine
 10
2669.30461810387
 20
3151.468953203503
 30
0.0
 11
2669.30461810387
 21
3051.468953203503
 31
0.0
  0
LINE
  5
AEB
330
1F
100
AcDbEntity
  8
0
 62
     1
100
AcDbLine
 10
2659.304618103869
 20
3041.468953203503
 30
0.0
 11
2369.304618103869
 21
3041.468953203503
 31
0.0
  0
LINE
  5
AEC
330
1F
100
AcDbEntity
  8
0
 62
     1
100
AcDbLine
 10
2369.304618103869
 20
3041.468953203503
 30
0.0
 11
2369.30461810387
 21
3076.468953203503
 31
0.0
  0
CIRCLE
  5
AEE
330
1F
100
AcDbEntity
  8
0
 62
     1
100
AcDbCircle
 10
2531.308724754626
 20
3151.466617849514
 30
0.0
 40
2.924791370945213
  0
CIRCLE
  5
AEF
330
1F
100
AcDbEntity
  8
0
 62
     1
100
AcDbCircle
 10
2501.308724754626
 20
3151.466617849514
 30
0.0
 40
2.924791370945213
  0
CIRCLE
  5
AF0
330
1F
100
AcDbEntity
  8
0
 62
     1
100
AcDbCircle
 10
2471.308724754626
 20
3151.466617849514
 30
0.0
 40
2.924791370945213
  0
CIRCLE
  5
AF1
330
1F
100
AcDbEntity
  8
0
 62
     1
100
AcDbCircle
 10
2441.308724754626
 20
3151.466617849514
 30
0.0
 40
2.924791370945213
  0
CIRCLE
  5
AF2
330
1F
100
AcDbEntity
  8
0
 62
     1
100
AcDbCircle
 10
2411.308724754626
 20
3151.466617849514
 30
0.0
 40
2.924791370945213
  0
CIRCLE
  5
AF3
330
1F
100
AcDbEntity
  8
0
 62
     1
100
AcDbCircle
 10
2381.308724754626
 20
3151.466617849514
 30
0.0
 40
2.924791370945213
  0
ARC
  5
AF4
330
1F
100
AcDbEntity
  8
0
 62
     1
100
AcDbCircle
 10
2659.304618103869
 20
3151.468953203503
 30
0.0
 40
10.0
100
AcDbArc
 50
0.0
 51
90.00000000000003
  0
LINE
  5
AF5
330
1F
100
AcDbEntity
  8
0
 62
     1
100
AcDbLine
 10
2369.304618103869
 20
3076.468953203503
 30
0.0
 11
2354.30461810387
 21
3076.468953203503
 31
0.0
  0
LINE
  5
AF6
330
1F
100
AcDbEntity
  8
0
 62
     1
100
AcDbLine
 10
2369.304618103869
 20
3126.468953203503
 30
0.0
 11
2354.30461810387
 21
3126.468953203503
 31
0.0
  0
LINE
  5
AF7
330
1F
100
AcDbEntity
  8
0
 62
     1
100
AcDbLine
 10
2354.30461810387
 20
3126.468953203503
 30
0.0
 11
2354.30461810387
 21
3076.468953203503
 31
0.0
  0
LINE
  5
AF8
330
1F
100
AcDbEntity
  8
0
 62
     1
100
AcDbLine
 10
2369.304618103869
 20
3126.468953203504
 30
0.0
 11
2369.304618103869
 21
3161.468953203503
 31
0.0
  0
CIRCLE
  5
AF9
330
1F
100
AcDbEntity
  8
0
 62
     1
100
AcDbCircle
 10
2361.80461810387
 20
3086.468953203503
 30
0.0
 40
3.0
  0
CIRCLE
  5
AFA
330
1F
100
AcDbEntity
  8
0
 62
     1
100
AcDbCircle
 10
2361.80461810387
 20
3116.468953203503
 30
0.0
 40
3.0
  0
CIRCLE
  5
AFD
330
1F
100
AcDbEntity
  8
0
 62
     1
100
AcDbCircle
 10
2621.308724754626
 20
3051.471288557493
 30
0.0
 40
2.924791370945213
  0
CIRCLE
  5
AFE
330
1F
100
AcDbEntity
  8
0
 62
     1
100
AcDbCircle
 10
2591.308724754626
 20
3051.471288557493
 30
0.0
 40
2.924791370945213
  0
CIRCLE
  5
AFF
330
1F
100
AcDbEntity
  8
0
 62
     1
100
AcDbCircle
 10
2561.308724754626
 20
3051.471288557493
 30
0.0
 40
2.924791370945213
  0
CIRCLE
  5
B01
330
1F
100
AcDbEntity
  8
0
 62
     1
100
AcDbCircle
 10
2651.308724754626
 20
3051.468953203503
 30
0.0
 40
2.924791370945213
  0
CIRCLE
  5
B02
330
1F
100
AcDbEntity
  8
0
 62
     1
100
AcDbCircle
 10
2621.308724754626
 20
3151.466617849514
 30
0.0
 40
2.924791370945213
  0
CIRCLE
  5
B03
330
1F
100
AcDbEntity
  8
0
 62
     1
100
AcDbCircle
 10
2591.308724754626
 20
3151.466617849514
 30
0.0
 40
2.924791370945213
  0
CIRCLE
  5
B04
330
1F
100
AcDbEntity
  8
0
 62
     1
100
AcDbCircle
 10
2561.308724754626
 20
3151.466617849514
 30
0.0
 40
2.924791370945213
  0
CIRCLE
  5
B05
330
1F
100
AcDbEntity
  8
0
 62
     1
100
AcDbCircle
 10
2651.308724754626
 20
3151.468953203503
 30
0.0
 40
2.924791370945213
  0
ARC
  5
C09
330
1F
100
AcDbEntity
  8
0
 62
     1
100
AcDbCircle
 10
2569.30461810387
 20
2666.131715658986
 30
0.0
 40
10.0
100
AcDbArc
 50
270.0
 51
0.0
  0
LINE
  5
C5A
102
{ACAD_REACTORS
330
D56
102
}
330
1F
100
AcDbEntity
  8
0
 62
     1
100
AcDbLine
 10
2924.30461810387
 20
2981.231415658008
 30
0.0
 11
2924.30461810387
 21
2901.231415658008
 31
0.0
  0
LINE
  5
C5B
102
{ACAD_REACTORS
330
D56
102
}
330
1F
100
AcDbEntity
  8
0
 62
     1
100
AcDbLine
 10
2579.304618103869
 20
2993.231415658008
 30
0.0
 11
2579.30461810387
 21
2889.231415658008
 31
0.0
  0
LINE
  5
C5C
102
{ACAD_REACTORS
330
D56
102
}
330
1F
100
AcDbEntity
  8
0
 62
     1
100
AcDbLine
 10
2579.30461810387
 20
2901.231415658008
 30
0.0
 11
2821.317283984524
 21
2901.231415658008
 31
0.0
  0
LINE
  5
C5D
102
{ACAD_REACTORS
330
D56
102
}
330
1F
100
AcDbEntity
  8
0
 62
     1
100
AcDbLine
 10
2833.307283984524
 20
2889.231415658008
 30
0.0
 11
2884.307283984525
 21
2889.231415658008
 31
0.0
  0
LINE
  5
C5E
102
{ACAD_REACTORS
330
D56
102
}
330
1F
100
AcDbEntity
  8
0
 62
     1
100
AcDbLine
 10
2916.30461810387
 20
2889.231415658008
 30
0.0
 11
2916.30461810387
 21
2918.231415658008
 31
0.0
  0
LINE
  5
C5F
102
{ACAD_REACTORS
330
D56
102
}
330
1F
100
AcDbEntity
  8
0
 62
     1
100
AcDbLine
 10
2916.30461810387
 20
2918.231415658008
 30
0.0
 11
2932.30461810387
 21
2918.231415658008
 31
0.0
  0
LINE
  5
C60
102
{ACAD_REACTORS
330
D56
102
}
330
1F
100
AcDbEntity
  8
0
 62
     1
100
AcDbLine
 10
2932.30461810387
 20
2918.231415658008
 30
0.0
 11
2932.30461810387
 21
2964.231415658008
 31
0.0
  0
LINE
  5
C61
102
{ACAD_REACTORS
330
D56
102
}
330
1F
100
AcDbEntity
  8
0
 62
     1
100
AcDbLine
 10
2896.307283984525
 20
2901.231415658008
 30
0.0
 11
2916.30461810387
 21
2901.231415658008
 31
0.0
  0
ARC
  5
C62
102
{ACAD_REACTORS
330
D56
102
}
330
1F
100
AcDbEntity
  8
0
 62
     1
100
AcDbCircle
 10
2821.307283984524
 20
2889.231415658008
 30
0.0
 40
12.0
100
AcDbArc
 50
0.0
 51
90.0
  0
ARC
  5
C63
102
{ACAD_REACTORS
330
D56
102
}
330
1F
100
AcDbEntity
  8
0
 62
     1
100
AcDbCircle
 10
2896.307283984525
 20
2889.231415658008
 30
0.0
 40
12.0
100
AcDbArc
 50
90.0
 51
180.0
  0
LINE
  5
C64
102
{ACAD_REACTORS
330
D56
102
}
330
1F
100
AcDbEntity
  8
0
 62
     1
100
AcDbLine
 10
2579.304618103869
 20
2981.231415658008
 30
0.0
 11
2821.307283984524
 21
2981.231415658008
 31
0.0
  0
LINE
  5
C65
102
{ACAD_REACTORS
330
D56
102
}
330
1F
100
AcDbEntity
  8
0
 62
     1
100
AcDbLine
 10
2833.307283984524
 20
2993.231415658008
 30
0.0
 11
2884.307283984525
 21
2993.231415658008
 31
0.0
  0
LINE
  5
C66
102
{ACAD_REACTORS
330
D56
102
}
330
1F
100
AcDbEntity
  8
0
 62
     1
100
AcDbLine
 10
2916.30461810387
 20
2993.231415658008
 30
0.0
 11
2916.30461810387
 21
2964.231415658008
 31
0.0
  0
LINE
  5
C67
102
{ACAD_REACTORS
330
D56
102
}
330
1F
100
AcDbEntity
  8
0
 62
     1
100
AcDbLine
 10
2916.30461810387
 20
2964.231415658008
 30
0.0
 11
2932.30461810387
 21
2964.231415658008
 31
0.0
  0
LINE
  5
C68
102
{ACAD_REACTORS
330
D56
102
}
330
1F
100
AcDbEntity
  8
0
 62
     1
100
AcDbLine
 10
2896.307283984525
 20
2981.231415658008
 30
0.0
 11
2916.30461810387
 21
2981.231415658008
 31
0.0
  0
ARC
  5
C69
102
{ACAD_REACTORS
330
D56
102
}
330
1F
100
AcDbEntity
  8
0
 62
     1
100
AcDbCircle
 10
2821.307283984524
 20
2993.231415658008
 30
0.0
 40
12.0
100
AcDbArc
 50
270.0
 51
0.0
  0
ARC
  5
C6A
102
{ACAD_REACTORS
330
D56
102
}
330
1F
100
AcDbEntity
  8
0
 62
     1
100
AcDbCircle
 10
2896.307283984525
 20
2993.231415658008
 30
0.0
 40
12.0
100
AcDbArc
 50
180.0
 51
270.0
  0
LINE
  5
C79
102
{ACAD_REACTORS
330
D56
102
}
330
1F
100
AcDbEntity
  8
0
 62
     1
100
AcDbLine
 10
2579.304618103869
 20
2993.231415658008
 30
0.0
 11
2821.297283984524
 21
2993.231415658008
 31
0.0
  0
LINE
  5
C7A
102
{ACAD_REACTORS
330
D56
102
}
330
1F
100
AcDbEntity
  8
0
 62
     1
100
AcDbLine
 10
2579.30461810387
 20
2889.231415658008
 30
0.0
 11
2821.307283984524
 21
2889.231415658008
 31
0.0
  0
LINE
  5
C7B
102
{ACAD_REACTORS
330
D56
102
}
330
1F
100
AcDbEntity
  8
0
 62
     1
100
AcDbLine
 10
2896.307283984525
 20
2889.231415658008
 30
0.0
 11
2916.30461810387
 21
2889.231415658008
 31
0.0
  0
LINE
  5
C7C
102
{ACAD_REACTORS
330
D56
102
}
330
1F
100
AcDbEntity
  8
0
 62
     1
100
AcDbLine
 10
2896.307283984525
 20
2993.231415658008
 30
0.0
 11
2916.30461810387
 21
2993.231415658008
 31
0.0
  0
LINE
  5
C7D
102
{ACAD_REACTORS
330
D56
102
}
330
1F
100
AcDbEntity
  8
0
 62
     1
100
AcDbLine
 10
2896.307283984525
 20
2993.231415658008
 30
0.0
 11
2896.307283984525
 21
2981.231415658008
 31
0.0
  0
LINE
  5
C7E
102
{ACAD_REACTORS
330
D56
102
}
330
1F
100
AcDbEntity
  8
0
 62
     1
100
AcDbLine
 10
2821.297283984524
 20
2993.231415658008
 30
0.0
 11
2821.297283984524
 21
2981.231415658008
 31
0.0
  0
LINE
  5
C7F
102
{ACAD_REACTORS
330
D56
102
}
330
1F
100
AcDbEntity
  8
0
 62
     1
100
AcDbLine
 10
2896.307283984525
 20
2901.231415658008
 30
0.0
 11
2896.307283984525
 21
2889.231415658008
 31
0.0
  0
LINE
  5
C80
102
{ACAD_REACTORS
330
D56
102
}
330
1F
100
AcDbEntity
  8
0
 62
     1
100
AcDbLine
 10
2821.297283984524
 20
2901.231415658008
 30
0.0
 11
2821.307283984524
 21
2889.231415658008
 31
0.0
  0
LWPOLYLINE
  5
D8B
330
1F
100
AcDbEntity
  8
0
 62
     1
100
AcDbPolyline
 90
        4
 70
     1
 43
0.0
 10
1712.880838649548
 20
3312.60740414641
 10
2150.880838649548
 20
3312.60740414641
 10
2150.880838649548
 20
3232.607404146409
 10
1712.880838649548
 20
3232.607404146409
  0
LINE
  5
DA8
330
1F
100
AcDbEntity
  8
0
 62
     1
100
AcDbLine
 10
1852.880838649548
 20
3312.60740414641
 30
0.0
 11
1852.880838649548
 21
3232.607404146409
 31
0.0
  0
LWPOLYLINE
  5
DA9
330
1F
100
AcDbEntity
  8
0
 62
     1
100
AcDbPolyline
 90
        4
 70
     1
 43
0.0
 10
1852.880838649548
 20
3312.60740414641
 10
2150.880838649548
 20
3312.60740414641
 10
2150.880838649548
 20
3232.607404146409
 10
1852.880838649548
 20
3232.607404146409
  0
LINE
  5
DAC
330
1F
100
AcDbEntity
  8
0
100
AcDbLine
 10
1455.984094435936
 20
3744.888780601058
 30
0.0
 11
1699.863092572849
 21
3744.888780601058
 31
0.0
  0
LINE
  5
DAD
330
1F
100
AcDbEntity
  8
0
100
AcDbLine
 10
1936.978116511521
 20
3755.028408929689
 30
0.0
 11
1936.978116511521
 21
3857.175790059018
 31
0.0
  0
LINE
  5
DAE
330
1F
100
AcDbEntity
  8
0
100
AcDbLine
 10
1936.978116511521
 20
3857.175790059018
 30
0.0
 11
1910.297970341162
 21
3857.175790059018
 31
0.0
  0
LINE
  5
DAF
330
1F
100
AcDbEntity
  8
0
100
AcDbLine
 10
1910.297970341162
 20
3857.175790059018
 30
0.0
 11
1910.297970341162
 21
3829.761230427317
 31
0.0
  0
LINE
  5
DB0
330
1F
100
AcDbEntity
  8
0
100
AcDbLine
 10
1910.297970341162
 20
3829.761230427317
 30
0.0
 11
1925.70480413391
 21
3829.761230427317
 31
0.0
  0
LINE
  5
DB1
330
1F
100
AcDbEntity
  8
0
100
AcDbLine
 10
1925.70480413391
 20
3829.761230427317
 30
0.0
 11
1925.70480413391
 21
3818.119439421598
 31
0.0
  0
LINE
  5
DB2
330
1F
100
AcDbEntity
  8
0
100
AcDbLine
 10
1925.70480413391
 20
3818.119439421598
 30
0.0
 11
1812.220289348663
 21
3818.119439421598
 31
0.0
  0
LINE
  5
DB3
330
1F
100
AcDbEntity
  8
0
100
AcDbLine
 10
1812.220289348663
 20
3818.119439421598
 30
0.0
 11
1812.220289348663
 21
3847.787248570434
 31
0.0
  0
LINE
  5
DB4
330
1F
100
AcDbEntity
  8
0
100
AcDbLine
 10
1812.220289348663
 20
3847.787248570434
 30
0.0
 11
1648.0059350058
 21
3847.787248570434
 31
0.0
  0
LINE
  5
DB5
330
1F
100
AcDbEntity
  8
0
100
AcDbLine
 10
1648.0059350058
 20
3847.787248570434
 30
0.0
 11
1648.0059350058
 21
3853.044834444762
 31
0.0
  0
LINE
  5
DB6
330
1F
100
AcDbEntity
  8
0
100
AcDbLine
 10
1648.0059350058
 20
3853.044834444762
 30
0.0
 11
1455.984094435936
 21
3853.044834444762
 31
0.0
  0
LINE
  5
DB7
330
1F
100
AcDbEntity
  8
0
100
AcDbLine
 10
1455.984094435936
 20
3853.044834444762
 30
0.0
 11
1455.984094435936
 21
3744.888780601058
 31
0.0
  0
LINE
  5
DD3
330
1F
100
AcDbEntity
  8
0
100
AcDbLine
 10
1717.900357101489
 20
3755.028408929689
 30
0.0
 11
1936.978116511521
 21
3755.028408929689
 31
0.0
  0
ARC
  5
DD5
330
1F
100
AcDbEntity
  8
0
100
AcDbCircle
 10
1717.356682169421
 20
3734.882593721119
 30
0.0
 40
20.15314994856989
100
AcDbArc
 50
88.45413452920091
 51
150.2308047332283
  0
LWPOLYLINE
  5
DD6
330
1F
100
AcDbEntity
  8
0
100
AcDbPolyline
 90
        4
 70
     1
 43
0.0
 10
1474.77292635141
 20
3788.451630272758
 10
1654.76990920404
 20
3788.451630272758
 10
1654.76990920404
 20
3794.835846407154
 10
1474.77292635141
 20
3794.835846407154
  0
LINE
  5
E18
102
{ACAD_REACTORS
330
1AEA
102
}
330
1F
100
AcDbEntity
  8
0
 62
     1
100
AcDbLine
 10
2524.301348861352
 20
2620.623927502716
 30
0.0
 11
2524.301348861352
 21
2616.999574623894
 31
0.0
  0
LINE
  5
E19
102
{ACAD_REACTORS
330
1AEA
102
}
330
1F
100
AcDbEntity
  8
0
 62
     1
100
AcDbLine
 10
2499.299260668061
 20
2616.999574623895
 30
0.0
 11
2499.299260668062
 21
2620.623927502716
 31
0.0
  0
LINE
  5
E1A
102
{ACAD_REACTORS
330
1AEA
102
}
330
1F
100
AcDbEntity
  8
0
 62
     1
100
AcDbLine
 10
2469.300910842607
 20
2620.623927502716
 30
0.0
 11
2469.300910842607
 21
2616.999574623895
 31
0.0
  0
LINE
  5
E1B
102
{ACAD_REACTORS
330
1AEA
102
}
330
1F
100
AcDbEntity
  8
0
 62
     1
100
AcDbLine
 10
2399.302967929325
 20
2616.999574623894
 30
0.0
 11
2399.302967929325
 21
2620.623927502716
 31
0.0
  0
LINE
  5
E1D
102
{ACAD_REACTORS
330
1AEA
102
}
330
1F
100
AcDbEntity
  8
0
 62
     1
100
AcDbLine
 10
2369.304618103869
 20
2620.623927502716
 30
0.0
 11
2399.302967929325
 21
2620.623927502716
 31
0.0
  0
CIRCLE
  5
E1E
102
{ACAD_REACTORS
330
1AEA
102
}
330
1F
100
AcDbEntity
  8
0
 62
     1
100
AcDbCircle
 10
2484.300085755334
 20
2609.623927502716
 30
0.0
 40
3.581238449716256
  0
LINE
  5
E20
102
{ACAD_REACTORS
330
1AEA
102
}
330
1F
100
AcDbEntity
  8
0
 62
     1
100
AcDbLine
 10
2469.300910842607
 20
2620.623927502716
 30
0.0
 11
2499.299260668062
 21
2620.623927502716
 31
0.0
  0
LINE
  5
E22
102
{ACAD_REACTORS
330
1AEA
102
}
330
1F
100
AcDbEntity
  8
0
 62
     1
100
AcDbLine
 10
2403.677320808146
 20
2612.625221745073
 30
0.0
 11
2464.926557963785
 21
2612.625221745073
 31
0.0
  0
LINE
  5
E23
102
{ACAD_REACTORS
330
1AEA
102
}
330
1F
100
AcDbEntity
  8
0
 62
     1
100
AcDbLine
 10
2503.673613546883
 20
2612.625221745073
 30
0.0
 11
2519.92699598253
 21
2612.625221745073
 31
0.0
  0
ARC
  5
E26
102
{ACAD_REACTORS
330
1AEA
102
}
330
1F
100
AcDbEntity
  8
0
 62
     1
100
AcDbCircle
 10
2519.92699598253
 20
2616.999574623894
 30
0.0
 40
4.374352878821446
100
AcDbArc
 50
270.0
 51
0.0
  0
ARC
  5
E27
102
{ACAD_REACTORS
330
1AEA
102
}
330
1F
100
AcDbEntity
  8
0
 62
     1
100
AcDbCircle
 10
2503.673613546883
 20
2616.999574623895
 30
0.0
 40
4.374352878821446
100
AcDbArc
 50
180.0
 51
269.9999999999982
  0
ARC
  5
E28
102
{ACAD_REACTORS
330
1AEA
102
}
330
1F
100
AcDbEntity
  8
0
 62
     1
100
AcDbCircle
 10
2464.926557963785
 20
2616.999574623895
 30
0.0
 40
4.374352878821446
100
AcDbArc
 50
270.0
 51
0.0
  0
ARC
  5
E29
102
{ACAD_REACTORS
330
1AEA
102
}
330
1F
100
AcDbEntity
  8
0
 62
     1
100
AcDbCircle
 10
2403.677320808146
 20
2616.999574623894
 30
0.0
 40
4.374352878821446
100
AcDbArc
 50
180.0
 51
270.0
  0
LINE
  5
ECE
102
{ACAD_REACTORS
330
1AEA
102
}
330
1F
100
AcDbEntity
  8
0
 62
     1
100
AcDbLine
 10
2399.305538886792
 20
2599.623927502716
 30
0.0
 11
2569.302521739422
 21
2599.623927502716
 31
0.0
  0
LINE
  5
ECF
102
{ACAD_REACTORS
330
1AEA
102
}
330
1F
100
AcDbEntity
  8
0
 62
     1
100
AcDbLine
 10
2399.305538886792
 20
2589.623927502716
 30
0.0
 11
2569.302521739422
 21
2589.623927502716
 31
0.0
  0
LINE
  5
F14
330
1F
100
AcDbEntity
  8
0
100
AcDbLine
 10
1936.978116511521
 20
3767.64230394392
 30
0.0
 11
1336.978116511521
 21
3767.64230394392
 31
0.0
  0
ARC
  5
F4E
102
{ACAD_REACTORS
330
1AEA
102
}
330
1F
100
AcDbEntity
  8
0
 62
     1
100
AcDbCircle
 10
2399.305538886792
 20
2594.623927502716
 30
0.0
 40
5.0
100
AcDbArc
 50
90.0
 51
270.0
  0
ARC
  5
F4F
102
{ACAD_REACTORS
330
1AEA
102
}
330
1F
100
AcDbEntity
  8
0
 62
     1
100
AcDbCircle
 10
2569.302521739422
 20
2594.623927502716
 30
0.0
 40
5.0
100
AcDbArc
 50
270.0
 51
90.0
  0
LINE
  5
FAF
102
{ACAD_REACTORS
330
1AEA
102
}
330
1F
100
AcDbEntity
  8
0
 62
     1
100
AcDbLine
 10
2524.301348861352
 20
2620.623927502716
 30
0.0
 11
2584.30134886135
 21
2620.623927502716
 31
0.0
  0
LINE
  5
FBD
102
{ACAD_REACTORS
330
1AEA
102
}
330
1F
100
AcDbEntity
  8
0
 62
     1
100
AcDbLine
 10
2584.301348861352
 20
2620.623927502716
 30
0.0
 11
2629.30461810387
 21
2614.403012222314
 31
0.0
  0
LINE
  5
FCD
102
{ACAD_REACTORS
330
1AEA
102
}
330
1F
100
AcDbEntity
  8
0
 62
     1
100
AcDbLine
 10
2629.30461810387
 20
2574.403012222314
 30
0.0
 11
2629.30461810387
 21
2614.403012222314
 31
0.0
  0
CIRCLE
  5
101B
102
{ACAD_REACTORS
330
1AEA
102
}
330
1F
100
AcDbEntity
  8
0
 62
     1
100
AcDbCircle
 10
2539.300523774079
 20
2609.623927502716
 30
0.0
 40
3.581238449716256
  0
LINE
  5
1058
102
{ACAD_REACTORS
330
1AEA
102
}
330
1F
100
AcDbEntity
  8
0
 62
     1
100
AcDbLine
 10
2524.301348861352
 20
2568.623927502716
 30
0.0
 11
2524.301348861352
 21
2572.248280381538
 31
0.0
  0
LINE
  5
1059
102
{ACAD_REACTORS
330
1AEA
102
}
330
1F
100
AcDbEntity
  8
0
 62
     1
100
AcDbLine
 10
2499.299260668061
 20
2572.248280381538
 30
0.0
 11
2499.299260668062
 21
2568.623927502716
 31
0.0
  0
LINE
  5
105A
102
{ACAD_REACTORS
330
1AEA
102
}
330
1F
100
AcDbEntity
  8
0
 62
     1
100
AcDbLine
 10
2469.300910842607
 20
2568.623927502716
 30
0.0
 11
2469.300910842607
 21
2572.248280381538
 31
0.0
  0
LINE
  5
105B
102
{ACAD_REACTORS
330
1AEA
102
}
330
1F
100
AcDbEntity
  8
0
 62
     1
100
AcDbLine
 10
2399.302967929325
 20
2572.248280381537
 30
0.0
 11
2399.302967929325
 21
2568.623927502716
 31
0.0
  0
LINE
  5
105C
102
{ACAD_REACTORS
330
1AEA
102
}
330
1F
100
AcDbEntity
  8
0
 62
     1
100
AcDbLine
 10
2369.304618103869
 20
2568.623927502716
 30
0.0
 11
2399.302967929325
 21
2568.623927502715
 31
0.0
  0
CIRCLE
  5
105D
102
{ACAD_REACTORS
330
1AEA
102
}
330
1F
100
AcDbEntity
  8
0
 62
     1
100
AcDbCircle
 10
2484.300085755334
 20
2579.623927502716
 30
0.0
 40
3.581238449716256
  0
LINE
  5
105E
102
{ACAD_REACTORS
330
1AEA
102
}
330
1F
100
AcDbEntity
  8
0
 62
     1
100
AcDbLine
 10
2469.300910842607
 20
2568.623927502716
 30
0.0
 11
2499.299260668062
 21
2568.623927502716
 31
0.0
  0
LINE
  5
105F
102
{ACAD_REACTORS
330
1AEA
102
}
330
1F
100
AcDbEntity
  8
0
 62
     1
100
AcDbLine
 10
2403.677320808146
 20
2576.622633260359
 30
0.0
 11
2464.926557963785
 21
2576.622633260359
 31
0.0
  0
LINE
  5
1060
102
{ACAD_REACTORS
330
1AEA
102
}
330
1F
100
AcDbEntity
  8
0
 62
     1
100
AcDbLine
 10
2503.673613546883
 20
2576.62263326036
 30
0.0
 11
2519.92699598253
 21
2576.62263326036
 31
0.0
  0
ARC
  5
1061
102
{ACAD_REACTORS
330
1AEA
102
}
330
1F
100
AcDbEntity
  8
0
 62
     1
100
AcDbCircle
 10
2519.92699598253
 20
2572.248280381538
 30
0.0
 40
4.374352878821446
100
AcDbArc
 50
0.0
 51
90.00000000000003
  0
ARC
  5
1062
102
{ACAD_REACTORS
330
1AEA
102
}
330
1F
100
AcDbEntity
  8
0
 62
     1
100
AcDbCircle
 10
2503.673613546883
 20
2572.248280381538
 30
0.0
 40
4.374352878821446
100
AcDbArc
 50
90.00000000000175
 51
180.0
  0
ARC
  5
1063
102
{ACAD_REACTORS
330
1AEA
102
}
330
1F
100
AcDbEntity
  8
0
 62
     1
100
AcDbCircle
 10
2464.926557963785
 20
2572.248280381538
 30
0.0
 40
4.374352878821446
100
AcDbArc
 50
0.0
 51
90.00000000000003
  0
ARC
  5
1064
102
{ACAD_REACTORS
330
1AEA
102
}
330
1F
100
AcDbEntity
  8
0
 62
     1
100
AcDbCircle
 10
2403.677320808146
 20
2572.248280381537
 30
0.0
 40
4.374352878821446
100
AcDbArc
 50
90.00000000000003
 51
180.0
  0
LINE
  5
1065
102
{ACAD_REACTORS
330
1AEA
102
}
330
1F
100
AcDbEntity
  8
0
 62
     1
100
AcDbLine
 10
2524.301348861352
 20
2568.623927502716
 30
0.0
 11
2584.301348861353
 21
2568.623927502716
 31
0.0
  0
LINE
  5
1066
102
{ACAD_REACTORS
330
1AEA
102
}
330
1F
100
AcDbEntity
  8
0
 62
     1
100
AcDbLine
 10
2584.301348861352
 20
2568.623927502716
 30
0.0
 11
2629.30461810387
 21
2574.403012222314
 31
0.0
  0
CIRCLE
  5
1067
102
{ACAD_REACTORS
330
1AEA
102
}
330
1F
100
AcDbEntity
  8
0
 62
     1
100
AcDbCircle
 10
2539.300523774079
 20
2579.623927502716
 30
0.0
 40
3.581238449716256
  0
LINE
  5
1068
102
{ACAD_REACTORS
330
1AEA
102
}
330
1F
100
AcDbEntity
  8
0
 62
     1
100
AcDbLine
 10
2369.304618103869
 20
2620.623927502716
 30
0.0
 11
2369.304618103869
 21
2568.623927502716
 31
0.0
  0
ARC
  5
10C9
330
1F
100
AcDbEntity
  8
0
100
AcDbCircle
 10
1631.097517461403
 20
2849.163688199796
 30
0.0
 40
9.639014958266182
100
AcDbArc
 50
174.9189457378215
 51
329.8269002929349
  0
LINE
  5
10CA
330
1F
100
AcDbEntity
  8
0
100
AcDbLine
 10
1621.496379925862
 20
2850.017366938741
 30
0.0
 11
1632.784655558182
 21
2892.316265131075
 31
0.0
  0
LINE
  5
10CD
330
1F
100
AcDbEntity
  8
0
100
AcDbLine
 10
1639.430550706422
 20
2874.358793789001
 30
0.0
 11
1639.430550706422
 21
2844.318983223942
 31
0.0
  0
LWPOLYLINE
  5
10CF
330
1F
100
AcDbEntity
  8
0
100
AcDbPolyline
 90
        4
 70
     1
 43
0.0
 10
1629.471192658421
 20
2907.316265131075
 10
1629.471192658421
 20
2892.316265131075
 10
1669.471192658421
 20
2892.316265131075
 10
1669.471192658421
 20
2907.316265131075
  0
LINE
  5
10D0
330
1F
100
AcDbEntity
  8
0
100
AcDbLine
 10
1644.471192658421
 20
2907.316265131075
 30
0.0
 11
1644.471192658421
 21
2945.484657745004
 31
0.0
  0
LINE
  5
10D1
330
1F
100
AcDbEntity
  8
0
100
AcDbLine
 10
1654.47119265842
 20
2945.484657745004
 30
0.0
 11
1654.47119265842
 21
2907.316265131075
 31
0.0
  0
ARC
  5
10D8
330
1F
100
AcDbEntity
  8
0
100
AcDbCircle
 10
1667.84486785544
 20
2849.163688199798
 30
0.0
 40
9.639014958266182
100
AcDbArc
 50
210.173099707065
 51
5.081054262178456
  0
LINE
  5
10D9
330
1F
100
AcDbEntity
  8
0
100
AcDbLine
 10
1677.446005390979
 20
2850.017366938741
 30
0.0
 11
1666.157729758659
 21
2892.316265131075
 31
0.0
  0
LINE
  5
10DA
330
1F
100
AcDbEntity
  8
0
100
AcDbLine
 10
1659.51183461042
 20
2874.358793789001
 30
0.0
 11
1659.51183461042
 21
2844.318983223942
 31
0.0
  0
ARC
  5
10DC
330
1F
100
AcDbEntity
  8
0
100
AcDbCircle
 10
1649.471192658421
 20
2874.358793789001
 30
0.0
 40
10.04064195199907
100
AcDbArc
 50
0.0
 51
180.0
  0
LINE
  5
1139
330
1F
100
AcDbEntity
  8
0
100
AcDbLine
 10
2316.80461810387
 20
2077.282139559964
 30
0.0
 11
2316.80461810387
 21
2087.500366692224
 31
0.0
  0
LINE
  5
113A
330
1F
100
AcDbEntity
  8
0
100
AcDbLine
 10
2321.91373167
 20
2082.391253126094
 30
0.0
 11
2311.695504537741
 21
2082.391253126094
 31
0.0
  0
LINE
  5
113B
330
1F
100
AcDbEntity
  8
0
100
AcDbLine
 10
2316.80461810387
 20
1957.282139559963
 30
0.0
 11
2316.80461810387
 21
1967.500366692222
 31
0.0
  0
LINE
  5
113C
330
1F
100
AcDbEntity
  8
0
100
AcDbLine
 10
2321.91373167
 20
1962.391253126093
 30
0.0
 11
2311.69550453774
 21
1962.391253126093
 31
0.0
  0
LINE
  5
113E
102
{ACAD_REACTORS
330
1150
330
1151
102
}
330
1F
100
AcDbEntity
  8
0
 62
     1
100
AcDbLine
 10
1784.653235370566
 20
2995.435820973758
 30
0.0
 11
1784.653235370566
 21
2931.216365640119
 31
0.0
  0
LINE
  5
113F
102
{ACAD_REACTORS
330
1150
330
1151
102
}
330
1F
100
AcDbEntity
  8
0
 62
     1
100
AcDbLine
 10
1742.112145996261
 20
3030.880568745341
 30
0.0
 11
1751.403195416463
 21
3030.880568745341
 31
0.0
  0
ARC
  5
1140
102
{ACAD_REACTORS
330
1150
330
1151
102
}
330
1F
100
AcDbEntity
  8
0
 62
     1
100
AcDbCircle
 10
1751.403195416463
 20
2997.630528791237
 30
0.0
 40
33.25003995410381
100
AcDbArc
 50
0.0
 51
90.0
  0
LINE
  5
1141
102
{ACAD_REACTORS
330
1150
330
1151
102
}
330
1F
100
AcDbEntity
  8
0
 62
     1
100
AcDbLine
 10
1784.653235370566
 20
2997.630528791237
 30
0.0
 11
1784.653235370566
 21
2995.435820973758
 31
0.0
  0
ARC
  5
1142
102
{ACAD_REACTORS
330
1150
330
1151
102
}
330
1F
100
AcDbEntity
  8
0
 62
     1
100
AcDbCircle
 10
1751.403195416463
 20
2929.021657822641
 30
0.0
 40
33.25003995410381
100
AcDbArc
 50
270.0
 51
0.0
  0
LINE
  5
1143
102
{ACAD_REACTORS
330
1150
330
1151
102
}
330
1F
100
AcDbEntity
  8
0
 62
     1
100
AcDbLine
 10
1742.112145996261
 20
2895.771617868537
 30
0.0
 11
1751.403195416463
 21
2895.771617868537
 31
0.0
  0
LINE
  5
1144
102
{ACAD_REACTORS
330
1150
330
1151
102
}
330
1F
100
AcDbEntity
  8
0
 62
     1
100
AcDbLine
 10
1784.653235370566
 20
2929.021657822641
 30
0.0
 11
1784.653235370566
 21
2931.21636564012
 31
0.0
  0
ARC
  5
1145
102
{ACAD_REACTORS
330
1150
330
1151
102
}
330
1F
100
AcDbEntity
  8
0
 62
     1
100
AcDbCircle
 10
1751.403195416463
 20
2997.630528791237
 30
0.0
 40
18.25003995410381
100
AcDbArc
 50
0.0
 51
90.0
  0
LINE
  5
1146
102
{ACAD_REACTORS
330
1150
330
1151
102
}
330
1F
100
AcDbEntity
  8
0
 62
     1
100
AcDbLine
 10
1769.653235370567
 20
2997.630528791237
 30
0.0
 11
1769.653235370567
 21
2929.021657822641
 31
0.0
  0
ARC
  5
1147
102
{ACAD_REACTORS
330
1150
330
1151
102
}
330
1F
100
AcDbEntity
  8
0
 62
     1
100
AcDbCircle
 10
1751.403195416463
 20
2929.021657822641
 30
0.0
 40
18.25003995410381
100
AcDbArc
 50
270.0
 51
0.0
  0
LINE
  5
1148
102
{ACAD_REACTORS
330
1150
330
1151
102
}
330
1F
100
AcDbEntity
  8
0
 62
     1
100
AcDbLine
 10
1751.403195416463
 20
3015.88056874534
 30
0.0
 11
1742.193861048413
 21
3015.88056874534
 31
0.0
  0
CIRCLE
  5
1149
102
{ACAD_REACTORS
330
1150
330
1151
102
}
330
1F
100
AcDbEntity
  8
0
 62
     1
100
AcDbCircle
 10
1732.153235370566
 20
2903.326093306939
 30
0.0
 40
12.5
  0
CIRCLE
  5
114A
102
{ACAD_REACTORS
330
1150
330
1151
102
}
330
1F
100
AcDbEntity
  8
0
 62
     1
100
AcDbCircle
 10
1732.153235370566
 20
3023.326093306939
 30
0.0
 40
12.5
  0
LINE
  5
114B
102
{ACAD_REACTORS
330
1150
330
1151
102
}
330
1F
100
AcDbEntity
  8
0
 62
     1
100
AcDbLine
 10
1751.403195416463
 20
2910.771617868538
 30
0.0
 11
1742.193861048413
 21
2910.771617868538
 31
0.0
  0
LINE
  5
114C
102
{ACAD_REACTORS
330
1151
102
}
330
1F
100
AcDbEntity
  8
0
100
AcDbLine
 10
1732.153235370566
 20
3018.21697974081
 30
0.0
 11
1732.153235370566
 21
3028.435206873069
 31
0.0
  0
LINE
  5
114D
102
{ACAD_REACTORS
330
1151
102
}
330
1F
100
AcDbEntity
  8
0
100
AcDbLine
 10
1737.262348936696
 20
3023.32609330694
 30
0.0
 11
1727.044121804437
 21
3023.32609330694
 31
0.0
  0
LINE
  5
114E
102
{ACAD_REACTORS
330
1151
102
}
330
1F
100
AcDbEntity
  8
0
100
AcDbLine
 10
1732.153235370565
 20
2898.216979740809
 30
0.0
 11
1732.153235370565
 21
2908.435206873068
 31
0.0
  0
LINE
  5
114F
102
{ACAD_REACTORS
330
1151
102
}
330
1F
100
AcDbEntity
  8
0
100
AcDbLine
 10
1737.262348936696
 20
2903.326093306939
 30
0.0
 11
1727.044121804436
 21
2903.326093306939
 31
0.0
  0
LINE
  5
1152
102
{ACAD_REACTORS
330
1164
330
1165
102
}
330
1F
100
AcDbEntity
  8
0
 62
     1
100
AcDbLine
 10
1691.690213620676
 20
2940.243300558991
 30
0.0
 11
1691.690213620676
 21
2876.023845225352
 31
0.0
  0
LINE
  5
1153
102
{ACAD_REACTORS
330
1164
330
1165
102
}
330
1F
100
AcDbEntity
  8
0
 62
     1
100
AcDbLine
 10
1734.231302994981
 20
2975.688048330574
 30
0.0
 11
1724.940253574779
 21
2975.688048330574
 31
0.0
  0
ARC
  5
1154
102
{ACAD_REACTORS
330
1164
330
1165
102
}
330
1F
100
AcDbEntity
  8
0
 62
     1
100
AcDbCircle
 10
1724.940253574779
 20
2942.43800837647
 30
0.0
 40
33.25003995410381
100
AcDbArc
 50
90.0
 51
180.0
  0
LINE
  5
1155
102
{ACAD_REACTORS
330
1164
330
1165
102
}
330
1F
100
AcDbEntity
  8
0
 62
     1
100
AcDbLine
 10
1691.690213620676
 20
2942.43800837647
 30
0.0
 11
1691.690213620676
 21
2940.243300558991
 31
0.0
  0
ARC
  5
1156
102
{ACAD_REACTORS
330
1164
330
1165
102
}
330
1F
100
AcDbEntity
  8
0
 62
     1
100
AcDbCircle
 10
1724.940253574779
 20
2873.829137407874
 30
0.0
 40
33.25003995410381
100
AcDbArc
 50
180.0
 51
270.0
  0
LINE
  5
1157
102
{ACAD_REACTORS
330
1164
330
1165
102
}
330
1F
100
AcDbEntity
  8
0
 62
     1
100
AcDbLine
 10
1734.231302994981
 20
2840.57909745377
 30
0.0
 11
1724.940253574779
 21
2840.57909745377
 31
0.0
  0
LINE
  5
1158
102
{ACAD_REACTORS
330
1164
330
1165
102
}
330
1F
100
AcDbEntity
  8
0
 62
     1
100
AcDbLine
 10
1691.690213620676
 20
2873.829137407874
 30
0.0
 11
1691.690213620676
 21
2876.023845225353
 31
0.0
  0
ARC
  5
1159
102
{ACAD_REACTORS
330
1164
330
1165
102
}
330
1F
100
AcDbEntity
  8
0
 62
     1
100
AcDbCircle
 10
1724.940253574779
 20
2942.43800837647
 30
0.0
 40
18.25003995410381
100
AcDbArc
 50
90.0
 51
180.0
  0
LINE
  5
115A
102
{ACAD_REACTORS
330
1164
330
1165
102
}
330
1F
100
AcDbEntity
  8
0
 62
     1
100
AcDbLine
 10
1706.690213620675
 20
2942.43800837647
 30
0.0
 11
1706.690213620675
 21
2873.829137407874
 31
0.0
  0
ARC
  5
115B
102
{ACAD_REACTORS
330
1164
330
1165
102
}
330
1F
100
AcDbEntity
  8
0
 62
     1
100
AcDbCircle
 10
1724.940253574779
 20
2873.829137407874
 30
0.0
 40
18.25003995410381
100
AcDbArc
 50
180.0
 51
270.0
  0
LINE
  5
115C
102
{ACAD_REACTORS
330
1164
330
1165
102
}
330
1F
100
AcDbEntity
  8
0
 62
     1
100
AcDbLine
 10
1724.940253574779
 20
2960.688048330574
 30
0.0
 11
1734.149587942829
 21
2960.688048330574
 31
0.0
  0
CIRCLE
  5
115D
102
{ACAD_REACTORS
330
1164
330
1165
102
}
330
1F
100
AcDbEntity
  8
0
 62
     1
100
AcDbCircle
 10
1744.190213620676
 20
2848.133572892173
 30
0.0
 40
12.5
  0
CIRCLE
  5
115E
102
{ACAD_REACTORS
330
1164
330
1165
102
}
330
1F
100
AcDbEntity
  8
0
 62
     1
100
AcDbCircle
 10
1744.190213620676
 20
2968.133572892172
 30
0.0
 40
12.5
  0
LINE
  5
115F
102
{ACAD_REACTORS
330
1164
330
1165
102
}
330
1F
100
AcDbEntity
  8
0
 62
     1
100
AcDbLine
 10
1724.940253574779
 20
2855.579097453771
 30
0.0
 11
1734.149587942829
 21
2855.579097453771
 31
0.0
  0
LINE
  5
1160
102
{ACAD_REACTORS
330
1165
102
}
330
1F
100
AcDbEntity
  8
0
100
AcDbLine
 10
1744.190213620676
 20
2963.024459326043
 30
0.0
 11
1744.190213620676
 21
2973.242686458303
 31
0.0
  0
LINE
  5
1161
102
{ACAD_REACTORS
330
1165
102
}
330
1F
100
AcDbEntity
  8
0
100
AcDbLine
 10
1739.081100054545
 20
2968.133572892174
 30
0.0
 11
1749.299327186805
 21
2968.133572892174
 31
0.0
  0
LINE
  5
1162
102
{ACAD_REACTORS
330
1165
102
}
330
1F
100
AcDbEntity
  8
0
100
AcDbLine
 10
1744.190213620676
 20
2843.024459326042
 30
0.0
 11
1744.190213620676
 21
2853.242686458302
 31
0.0
  0
LINE
  5
1163
102
{ACAD_REACTORS
330
1165
102
}
330
1F
100
AcDbEntity
  8
0
100
AcDbLine
 10
1739.081100054546
 20
2848.133572892173
 30
0.0
 11
1749.299327186806
 21
2848.133572892173
 31
0.0
  0
LINE
  5
1167
330
1F
100
AcDbEntity
  8
0
100
AcDbLine
 10
1799.577931891708
 20
3110.031759709491
 30
0.0
 11
1799.577931891708
 21
2823.031759709492
 31
0.0
  0
LINE
  5
1168
330
1F
100
AcDbEntity
  8
0
100
AcDbLine
 10
1799.577931891708
 20
2823.031759709492
 30
0.0
 11
1599.577931891708
 21
2823.031759709492
 31
0.0
  0
LWPOLYLINE
  5
11B9
330
1F
100
AcDbEntity
  8
0
100
AcDbPolyline
 90
        4
 70
     1
 43
0.0
 10
2794.304288115672
 20
2062.391253126093
 10
2794.304288115672
 20
2359.391253126092
 10
2939.304288115673
 20
2359.391253126092
 10
2939.304288115673
 20
2062.391253126093
  0
LWPOLYLINE
  5
11EA
330
1F
100
AcDbEntity
  8
0
100
AcDbPolyline
 90
        4
 70
     1
 43
0.0
 10
2939.304288115673
 20
2662.629380304997
 10
2794.304288115672
 20
2662.629380304997
 10
2794.304288115672
 20
2469.629380304997
 10
2939.304288115673
 20
2469.629380304997
  0
CIRCLE
  5
122F
330
1F
100
AcDbEntity
  8
0
100
AcDbCircle
 10
4052.447872311775
 20
2607.427513351264
 30
0.0
 40
13.5
  0
CIRCLE
  5
1230
330
1F
100
AcDbEntity
  8
0
100
AcDbCircle
 10
4052.447872311775
 20
2607.427513351264
 30
0.0
 40
20.0
  0
CIRCLE
  5
1231
330
1F
100
AcDbEntity
  8
0
100
AcDbCircle
 10
4052.447872311775
 20
2607.427513351264
 30
0.0
 40
30.0
  0
LWPOLYLINE
  5
123A
102
{ACAD_REACTORS
330
1919
102
}
330
1F
100
AcDbEntity
  8
0
 62
     1
100
AcDbPolyline
 90
        4
 70
     1
 43
0.0
 10
2969.304618103869
 20
2637.427513351264
 10
3169.30461810387
 20
2637.427513351264
 10
3169.30461810387
 20
2577.427513351264
 10
2969.304618103869
 20
2577.427513351264
  0
LWPOLYLINE
  5
123B
330
1F
100
AcDbEntity
  8
0
 62
     1
100
AcDbPolyline
 90
        4
 70
     1
 43
0.0
 10
3259.30461810387
 20
2620.927513351265
 10
3729.304618103869
 20
2620.927513351265
 10
3729.304618103869
 20
2593.927513351264
 10
3259.30461810387
 20
2593.927513351264
  0
LWPOLYLINE
  5
1257
330
1F
100
AcDbEntity
  8
0
 62
     1
100
AcDbPolyline
 90
        4
 70
     1
 43
0.0
 10
3169.30461810387
 20
2627.427513351264
 10
3259.30461810387
 20
2627.427513351264
 10
3259.30461810387
 20
2587.427513351264
 10
3169.30461810387
 20
2587.427513351264
  0
CIRCLE
  5
12B3
102
{ACAD_REACTORS
330
1919
102
}
330
1F
100
AcDbEntity
  8
0
 62
     1
100
AcDbCircle
 10
3109.30461810387
 20
2607.427513351264
 30
0.0
 40
11.25
  0
CIRCLE
  5
1348
102
{ACAD_REACTORS
330
1919
102
}
330
1F
100
AcDbEntity
  8
0
 62
     1
100
AcDbCircle
 10
3069.30461810387
 20
2607.427513351264
 30
0.0
 40
11.25
  0
CIRCLE
  5
1349
102
{ACAD_REACTORS
330
1919
102
}
330
1F
100
AcDbEntity
  8
0
 62
     1
100
AcDbCircle
 10
3029.30461810387
 20
2607.427513351264
 30
0.0
 40
11.25
  0
CIRCLE
  5
134A
102
{ACAD_REACTORS
330
1919
102
}
330
1F
100
AcDbEntity
  8
0
 62
     1
100
AcDbCircle
 10
3149.30461810387
 20
2607.427513351264
 30
0.0
 40
11.25
  0
ELLIPSE
  5
1358
102
{ACAD_REACTORS
330
135A
330
1919
102
}
330
1F
100
AcDbEntity
  8
0
 62
     1
100
AcDbEllipse
 10
3049.30461810387
 20
2633.408275464798
 30
0.0
 11
-11.25
 21
0.0
 31
0.0
210
0.0
220
0.0
230
1.0
 40
0.6685289803143759
 41
0.0
 42
3.141592653589793
  0
ELLIPSE
  5
1359
102
{ACAD_REACTORS
330
135A
330
1919
102
}
330
1F
100
AcDbEntity
  8
0
 62
     1
100
AcDbEllipse
 10
3049.30461810387
 20
2633.408275464798
 30
0.0
 11
-11.25
 21
0.0
 31
0.0
210
0.0
220
0.0
230
1.0
 40
0.3314710196856645
 41
3.141592653589793
 42
6.283185307179586
  0
ELLIPSE
  5
135B
102
{ACAD_REACTORS
330
135D
330
1919
102
}
330
1F
100
AcDbEntity
  8
0
 62
     1
100
AcDbEllipse
 10
3089.30461810387
 20
2633.408275464798
 30
0.0
 11
-11.25
 21
0.0
 31
0.0
210
0.0
220
0.0
230
1.0
 40
0.6685289803143759
 41
0.0
 42
3.141592653589793
  0
ELLIPSE
  5
135C
102
{ACAD_REACTORS
330
135D
330
1919
102
}
330
1F
100
AcDbEntity
  8
0
 62
     1
100
AcDbEllipse
 10
3089.30461810387
 20
2633.408275464798
 30
0.0
 11
-11.25
 21
0.0
 31
0.0
210
0.0
220
0.0
230
1.0
 40
0.3314710196856645
 41
3.141592653589793
 42
6.283185307179586
  0
ELLIPSE
  5
135E
102
{ACAD_REACTORS
330
1360
330
1919
102
}
330
1F
100
AcDbEntity
  8
0
 62
     1
100
AcDbEllipse
 10
3129.30461810387
 20
2633.408275464798
 30
0.0
 11
-11.25
 21
0.0
 31
0.0
210
0.0
220
0.0
230
1.0
 40
0.6685289803143759
 41
0.0
 42
3.141592653589793
  0
ELLIPSE
  5
135F
102
{ACAD_REACTORS
330
1360
330
1919
102
}
330
1F
100
AcDbEntity
  8
0
 62
     1
100
AcDbEllipse
 10
3129.30461810387
 20
2633.408275464798
 30
0.0
 11
-11.25
 21
0.0
 31
0.0
210
0.0
220
0.0
230
1.0
 40
0.3314710196856645
 41
3.141592653589793
 42
6.283185307179586
  0
ELLIPSE
  5
1361
102
{ACAD_REACTORS
330
1367
330
1919
102
}
330
1F
100
AcDbEntity
  8
0
 62
     1
100
AcDbEllipse
 10
3049.30461810387
 20
2581.446751237731
 30
0.0
 11
-11.25
 21
0.0
 31
0.0
210
0.0
220
0.0
230
-1.0
 40
0.6685289803143759
 41
0.0
 42
3.141592653589793
  0
ELLIPSE
  5
1362
102
{ACAD_REACTORS
330
1367
330
1919
102
}
330
1F
100
AcDbEntity
  8
0
 62
     1
100
AcDbEllipse
 10
3049.30461810387
 20
2581.446751237731
 30
0.0
 11
-11.25
 21
0.0
 31
0.0
210
0.0
220
0.0
230
-1.0
 40
0.3314710196856645
 41
3.141592653589793
 42
6.283185307179586
  0
ELLIPSE
  5
1363
102
{ACAD_REACTORS
330
1368
330
1919
102
}
330
1F
100
AcDbEntity
  8
0
 62
     1
100
AcDbEllipse
 10
3089.30461810387
 20
2581.446751237731
 30
0.0
 11
-11.25
 21
0.0
 31
0.0
210
0.0
220
0.0
230
-1.0
 40
0.6685289803143759
 41
0.0
 42
3.141592653589793
  0
ELLIPSE
  5
1364
102
{ACAD_REACTORS
330
1368
330
1919
102
}
330
1F
100
AcDbEntity
  8
0
 62
     1
100
AcDbEllipse
 10
3089.30461810387
 20
2581.446751237731
 30
0.0
 11
-11.25
 21
0.0
 31
0.0
210
0.0
220
0.0
230
-1.0
 40
0.3314710196856645
 41
3.141592653589793
 42
6.283185307179586
  0
ELLIPSE
  5
1365
102
{ACAD_REACTORS
330
1369
330
1919
102
}
330
1F
100
AcDbEntity
  8
0
 62
     1
100
AcDbEllipse
 10
3129.30461810387
 20
2581.446751237731
 30
0.0
 11
-11.25
 21
0.0
 31
0.0
210
0.0
220
0.0
230
-1.0
 40
0.6685289803143759
 41
0.0
 42
3.141592653589793
  0
ELLIPSE
  5
1366
102
{ACAD_REACTORS
330
1369
330
1919
102
}
330
1F
100
AcDbEntity
  8
0
 62
     1
100
AcDbEllipse
 10
3129.30461810387
 20
2581.446751237731
 30
0.0
 11
-11.25
 21
0.0
 31
0.0
210
0.0
220
0.0
230
-1.0
 40
0.3314710196856645
 41
3.141592653589793
 42
6.283185307179586
  0
CIRCLE
  5
136D
330
1F
100
AcDbEntity
  8
0
100
AcDbCircle
 10
4052.447872311775
 20
2607.427513351264
 30
0.0
 40
32.0
  0
LINE
  5
139B
330
1F
100
AcDbEntity
  8
0
100
AcDbLine
 10
2113.561008516316
 20
2589.616461371554
 30
0.0
 11
2126.535821248874
 21
2631.915359563888
 31
0.0
  0
LWPOLYLINE
  5
139D
330
1F
100
AcDbEntity
  8
0
100
AcDbPolyline
 90
        6
 70
     0
 43
0.0
 10
2149.535821248874
 20
2631.915359563888
 10
2164.535821248874
 20
2631.915359563888
 10
2164.535821248874
 20
2641.915359563888
 10
2118.535821248874
 20
2641.915359563888
 10
2118.535821248874
 20
2631.915359563888
 10
2133.535821248874
 20
2631.915359563888
  0
LINE
  5
13A1
330
1F
100
AcDbEntity
  8
0
100
AcDbLine
 10
2169.510633981432
 20
2589.616461371555
 30
0.0
 11
2156.535821248874
 21
2631.915359563888
 31
0.0
  0
LINE
  5
13E3
330
1F
100
AcDbEntity
  8
0
100
AcDbLine
 10
2131.535821248874
 20
2583.988667734482
 30
0.0
 11
2131.535821248874
 21
2613.957888221815
 31
0.0
  0
ARC
  5
13E5
330
1F
100
AcDbEntity
  8
0
100
AcDbCircle
 10
2141.535821248874
 20
2613.957888221815
 30
0.0
 40
10.0
100
AcDbArc
 50
0.0
 51
60.0000000000001
  0
ARC
  5
13E7
330
1F
100
AcDbEntity
  8
0
100
AcDbCircle
 10
2123.162146051856
 20
2588.76278263261
 30
0.0
 40
9.639014958266409
100
AcDbArc
 50
174.9189457378189
 51
330.3110757934475
  0
LINE
  5
13E8
330
1F
100
AcDbEntity
  8
0
100
AcDbLine
 10
2151.535821248874
 20
2583.988667734482
 30
0.0
 11
2151.535821248874
 21
2613.957888221815
 31
0.0
  0
ARC
  5
13E9
330
1F
100
AcDbEntity
  8
0
100
AcDbCircle
 10
2159.909496445892
 20
2588.76278263261
 30
0.0
 40
9.639014958266409
100
AcDbArc
 50
209.6889242065524
 51
5.081054262181051
  0
LINE
  5
13F0
330
1F
100
AcDbEntity
  8
0
 62
     1
100
AcDbLine
 10
2009.137498200129
 20
2562.458721836216
 30
0.0
 11
2030.537498200129
 21
2562.458721836216
 31
0.0
  0
LINE
  5
13F1
330
1F
100
AcDbEntity
  8
0
 62
     1
100
AcDbLine
 10
2029.337498200129
 20
2563.658721836215
 30
0.0
 11
2029.337498200129
 21
2578.758721836216
 31
0.0
  0
LINE
  5
13F3
330
1F
100
AcDbEntity
  8
0
 62
     1
100
AcDbLine
 10
2010.337498200129
 20
2578.758721836216
 30
0.0
 11
2010.337498200129
 21
2563.658721836215
 31
0.0
  0
LINE
  5
13F5
330
1F
100
AcDbEntity
  8
0
 62
     1
100
AcDbLine
 10
2009.137498200129
 20
2578.758721836216
 30
0.0
 11
2009.137498200129
 21
2562.458721836216
 31
0.0
  0
LINE
  5
13F6
330
1F
100
AcDbEntity
  8
0
 62
     1
100
AcDbLine
 10
2030.537498200129
 20
2562.458721836216
 30
0.0
 11
2030.537498200129
 21
2578.758721836216
 31
0.0
  0
LINE
  5
13F7
330
1F
100
AcDbEntity
  8
0
 62
     1
100
AcDbLine
 10
2010.337498200129
 20
2563.658721836215
 30
0.0
 11
2029.337498200129
 21
2563.658721836215
 31
0.0
  0
LINE
  5
13F8
330
1F
100
AcDbEntity
  8
0
 62
     1
100
AcDbLine
 10
2009.137498200129
 20
2578.758721836216
 30
0.0
 11
2010.337498200129
 21
2578.758721836216
 31
0.0
  0
LINE
  5
13FA
330
1F
100
AcDbEntity
  8
0
 62
     1
100
AcDbLine
 10
2029.337498200129
 20
2578.758721836216
 30
0.0
 11
2030.537498200129
 21
2578.758721836216
 31
0.0
  0
LWPOLYLINE
  5
13FE
330
1F
100
AcDbEntity
  8
0
 62
     1
100
AcDbPolyline
 90
        4
 70
     1
 43
0.0
 10
2011.837498200129
 20
2569.358721836215
 10
2027.837498200129
 20
2569.358721836215
 10
2027.837498200129
 20
2563.958721836215
 10
2011.837498200129
 20
2563.958721836215
  0
ARC
  5
1407
330
1F
100
AcDbEntity
  8
0
 62
     1
100
AcDbCircle
 10
2045.719777333517
 20
2566.658721836216
 30
0.0
 40
2.700000000000272
100
AcDbArc
 50
276.0255750083587
 51
225.0483775735945
  0
CIRCLE
  5
1408
330
1F
100
AcDbEntity
  8
0
 62
     1
100
AcDbCircle
 10
2045.719777333517
 20
2566.658721836216
 30
0.0
 40
1.700000000000272
  0
LWPOLYLINE
  5
140D
330
1F
100
AcDbEntity
  8
0
 62
     1
100
AcDbPolyline
 90
        4
 70
     0
 43
0.0
 10
2046.003202747881
 20
2563.973638963287
 10
2043.019777333517
 20
2563.658721836215
 10
2042.914804957826
 20
2564.653196974337
 10
2045.898230372191
 20
2564.968114101409
  0
LWPOLYLINE
  5
1411
330
1F
100
AcDbEntity
  8
0
 62
     1
100
AcDbPolyline
 90
        4
 70
     0
 43
0.0
 10
2047.419777333517
 20
2568.756339532556
 10
2047.419777333517
 20
2576.658721836215
 10
2048.419777333517
 20
2576.658721836215
 10
2048.419777333517
 20
2566.658721836216
  0
LINE
  5
1423
330
1F
100
AcDbEntity
  8
0
100
AcDbLine
 10
2133.535821248874
 20
2641.915359563888
 30
0.0
 11
2133.535821248874
 21
2631.915359563888
 31
0.0
  0
LINE
  5
1424
330
1F
100
AcDbEntity
  8
0
100
AcDbLine
 10
2149.535821248874
 20
2641.915359563888
 30
0.0
 11
2149.535821248874
 21
2631.915359563888
 31
0.0
  0
LINE
  5
1433
330
1F
100
AcDbEntity
  8
0
100
AcDbLine
 10
2136.535821248874
 20
2622.618142259659
 30
0.0
 11
2136.535821248874
 21
2583.988667734482
 31
0.0
  0
LINE
  5
1434
330
1F
100
AcDbEntity
  8
0
100
AcDbLine
 10
2146.535821248874
 20
2622.618142259659
 30
0.0
 11
2146.535821248874
 21
2583.988667734482
 31
0.0
  0
ARC
  5
1435
330
1F
100
AcDbEntity
  8
0
100
AcDbCircle
 10
2141.535821248874
 20
2613.957888221815
 30
0.0
 40
10.0
100
AcDbArc
 50
119.9999999999998
 51
180.0
  0
LINE
  5
1436
330
1F
100
AcDbEntity
  8
0
100
AcDbLine
 10
2136.535821248874
 20
2583.988667734482
 30
0.0
 11
2146.535821248874
 21
2583.988667734482
 31
0.0
  0
LINE
  5
1445
330
1F
100
AcDbEntity
  8
0
100
AcDbLine
 10
2136.535821248874
 20
2622.618142259659
 30
0.0
 11
2146.535821248874
 21
2622.618142259659
 31
0.0
  0
LWPOLYLINE
  5
1447
330
1F
100
AcDbEntity
  8
0
100
AcDbPolyline
 90
        2
 70
     0
 43
0.0
 10
2094.895093101359
 20
2651.915359563887
 10
2094.895093101359
 20
2643.915359563887
  0
LINE
  5
144F
330
1F
100
AcDbEntity
  8
0
100
AcDbLine
 10
2104.895093101359
 20
2651.915359563887
 30
0.0
 11
2094.895093101359
 21
2651.915359563887
 31
0.0
  0
CIRCLE
  5
1456
330
1F
100
AcDbEntity
  8
0
100
AcDbCircle
 10
2101.395093101359
 20
2647.415359563888
 30
0.0
 40
1.5
  0
ARC
  5
1458
330
1F
100
AcDbEntity
  8
0
100
AcDbCircle
 10
2101.395093101359
 20
2647.415359563888
 30
0.0
 40
3.5
100
AcDbArc
 50
270.0
 51
0.0
  0
LINE
  5
145A
330
1F
100
AcDbEntity
  8
0
100
AcDbLine
 10
2101.395093101359
 20
2643.915359563887
 30
0.0
 11
2094.895093101359
 21
2643.915359563887
 31
0.0
  0
LINE
  5
145E
330
1F
100
AcDbEntity
  8
0
100
AcDbLine
 10
2099.895093101359
 20
2647.415359563888
 30
0.0
 11
2102.895093101359
 21
2647.415359563888
 31
0.0
  0
LINE
  5
1460
330
1F
100
AcDbEntity
  8
0
100
AcDbLine
 10
2101.395093101359
 20
2648.915359563888
 30
0.0
 11
2101.395093101359
 21
2645.915359563888
 31
0.0
  0
LINE
  5
1467
330
1F
100
AcDbEntity
  8
0
100
AcDbLine
 10
2094.895093101359
 20
2651.915359563887
 30
0.0
 11
2056.709254608282
 21
2613.72952107081
 31
0.0
  0
LINE
  5
1468
330
1F
100
AcDbEntity
  8
0
100
AcDbLine
 10
2056.709254608282
 20
2613.72952107081
 30
0.0
 11
2057.784648214215
 21
2612.683594333183
 31
0.0
  0
LINE
  5
1469
330
1F
100
AcDbEntity
  8
0
100
AcDbLine
 10
2057.784648214215
 20
2612.683594333183
 30
0.0
 11
2088.851297785264
 21
2643.750243904232
 31
0.0
  0
LWPOLYLINE
  5
146F
330
1F
100
AcDbEntity
  8
0
 62
     6
100
AcDbPolyline
 90
        4
 70
     1
 43
0.0
 10
2101.395093101359
 20
2627.930447657177
 10
2109.426704058433
 20
2627.930447657177
 10
2109.426704058433
 20
2630.629108294437
 10
2101.395093101359
 20
2630.629108294437
  0
LINE
  5
1471
330
1F
100
AcDbEntity
  8
0
100
AcDbLine
 10
2101.395093101359
 20
2625.231787019917
 30
0.0
 11
2101.395093101359
 21
2633.327768931698
 31
0.0
  0
LINE
  5
1473
330
1F
100
AcDbEntity
  8
0
100
AcDbLine
 10
2101.395093101359
 20
2625.231787019917
 30
0.0
 11
2099.895093101359
 21
2625.231787019917
 31
0.0
  0
LINE
  5
1474
330
1F
100
AcDbEntity
  8
0
100
AcDbLine
 10
2099.895093101359
 20
2625.231787019917
 30
0.0
 11
2099.895093101359
 21
2632.706448588137
 31
0.0
  0
LINE
  5
1475
330
1F
100
AcDbEntity
  8
0
100
AcDbLine
 10
2088.851297785264
 20
2643.750243904233
 30
0.0
 11
2099.895093101359
 21
2632.706448588137
 31
0.0
  0
LINE
  5
1477
330
1F
100
AcDbEntity
  8
0
100
AcDbLine
 10
2101.395093101359
 20
2633.327768931698
 30
0.0
 11
2089.911957957045
 21
2644.810904076013
 31
0.0
  0
LINE
  5
1479
330
1F
100
AcDbEntity
  8
0
100
AcDbLine
 10
2104.895093101359
 20
2647.415359563888
 30
0.0
 11
2104.895093101359
 21
2651.915359563887
 31
0.0
  0
LINE
  5
147D
330
1F
100
AcDbEntity
  8
0
100
AcDbLine
 10
2089.911957957045
 20
2644.810904076012
 30
0.0
 11
2094.895093101359
 21
2649.794039220327
 31
0.0
  0
LINE
  5
150C
102
{ACAD_REACTORS
330
1934
330
1A1C
102
}
330
1F
100
AcDbEntity
  8
0
100
AcDbLine
 10
2638.988216678937
 20
2063.391253126092
 30
0.0
 11
2969.304618103869
 21
2063.391253126093
 31
0.0
  0
LINE
  5
150D
102
{ACAD_REACTORS
330
1934
330
1A1C
102
}
330
1F
100
AcDbEntity
  8
0
100
AcDbLine
 10
2969.304618103869
 20
2066.391253126093
 30
0.0
 11
2969.304618103869
 21
1978.391253126093
 31
0.0
  0
LINE
  5
150E
102
{ACAD_REACTORS
330
1934
330
1A1C
102
}
330
1F
100
AcDbEntity
  8
0
100
AcDbLine
 10
2969.304618103869
 20
1981.391253126092
 30
0.0
 11
2638.988216678937
 21
1981.391253126092
 31
0.0
  0
LINE
  5
1510
102
{ACAD_REACTORS
330
1934
330
1A1C
102
}
330
1F
100
AcDbEntity
  8
0
100
AcDbLine
 10
2638.988216678937
 20
2066.391253126093
 30
0.0
 11
2969.304618103869
 21
2066.391253126093
 31
0.0
  0
LINE
  5
1512
102
{ACAD_REACTORS
330
1934
330
1A1C
102
}
330
1F
100
AcDbEntity
  8
0
100
AcDbLine
 10
2969.304618103869
 20
1978.391253126093
 30
0.0
 11
2638.988216678937
 21
1978.391253126092
 31
0.0
  0
LINE
  5
1514
102
{ACAD_REACTORS
330
1934
330
1A1C
102
}
330
1F
100
AcDbEntity
  8
0
100
AcDbLine
 10
2939.30461810387
 20
2041.391253126092
 30
0.0
 11
2939.30461810387
 21
2003.391253126092
 31
0.0
  0
LINE
  5
1521
102
{ACAD_REACTORS
330
1934
330
1A1C
102
}
330
1F
100
AcDbEntity
  8
0
100
AcDbLine
 10
2638.988216678937
 20
2066.391253126093
 30
0.0
 11
2638.988216678937
 21
1978.391253126092
 31
0.0
  0
LINE
  5
1522
102
{ACAD_REACTORS
330
1934
330
1A1C
102
}
330
1F
100
AcDbEntity
  8
0
100
AcDbLine
 10
2668.988216678937
 20
2063.391253126093
 30
0.0
 11
2668.988216678937
 21
1981.391253126092
 31
0.0
  0
LINE
  5
1523
102
{ACAD_REACTORS
330
1934
330
1A1C
102
}
330
1F
100
AcDbEntity
  8
0
100
AcDbLine
 10
2721.027309041667
 20
2041.391253126092
 30
0.0
 11
2969.304618103869
 21
2041.391253126092
 31
0.0
  0
LINE
  5
1524
102
{ACAD_REACTORS
330
1934
330
1A1C
102
}
330
1F
100
AcDbEntity
  8
0
100
AcDbLine
 10
2969.304618103869
 20
2003.391253126092
 30
0.0
 11
2721.027309041669
 21
2003.391253126093
 31
0.0
  0
LINE
  5
1525
102
{ACAD_REACTORS
330
1934
330
1A1C
102
}
330
1F
100
AcDbEntity
  8
0
100
AcDbLine
 10
2699.027309041668
 20
2063.391253126092
 30
0.0
 11
2721.027309041668
 21
2041.391253126093
 31
0.0
  0
LINE
  5
1527
102
{ACAD_REACTORS
330
1934
330
1A1C
102
}
330
1F
100
AcDbEntity
  8
0
100
AcDbLine
 10
2721.027309041668
 20
2003.391253126093
 30
0.0
 11
2699.027309041668
 21
1981.391253126092
 31
0.0
  0
LINE
  5
1528
102
{ACAD_REACTORS
330
1934
330
1A1C
102
}
330
1F
100
AcDbEntity
  8
0
100
AcDbLine
 10
2684.332426808183
 20
1978.391253126093
 30
0.0
 11
2684.332426808183
 21
1981.391253126092
 31
0.0
  0
LINE
  5
1529
102
{ACAD_REACTORS
330
1934
330
1A1C
102
}
330
1F
100
AcDbEntity
  8
0
100
AcDbLine
 10
2684.332426808183
 20
2063.391253126092
 30
0.0
 11
2684.332426808183
 21
2066.391253126093
 31
0.0
  0
LWPOLYLINE
  5
1604
330
1F
100
AcDbEntity
  8
0
 62
     1
100
AcDbPolyline
 90
        4
 70
     1
 43
0.0
 10
2289.304618103869
 20
2618.129380304996
 10
2369.304618103869
 20
2618.129380304996
 10
2369.304618103869
 20
2591.129380304996
 10
2289.304618103869
 20
2591.129380304996
  0
LINE
  5
16DD
330
1F
100
AcDbEntity
  8
0
100
AcDbLine
 10
857.1627730151849
 20
1976.919678007872
 30
0.0
 11
1144.162773015184
 21
1976.919678007872
 31
0.0
  0
LINE
  5
16DE
330
1F
100
AcDbEntity
  8
0
100
AcDbLine
 10
1144.162773015184
 20
1976.919678007872
 30
0.0
 11
1144.162773015184
 21
1776.919678007873
 31
0.0
  0
LINE
  5
16DF
330
1F
100
AcDbEntity
  8
0
100
AcDbLine
 10
1144.162773015184
 20
1776.919678007873
 30
0.0
 11
857.1627730151849
 21
1776.919678007873
 31
0.0
  0
LINE
  5
16E0
330
1F
100
AcDbEntity
  8
0
100
AcDbLine
 10
857.1627730151849
 20
1776.919678007873
 30
0.0
 11
857.1627730151849
 21
1976.919678007872
 31
0.0
  0
LWPOLYLINE
  5
1792
330
1F
100
AcDbEntity
  8
0
100
AcDbPolyline
 90
        4
 70
     1
 43
0.0
 10
1369.439266258261
 20
2502.730499398002
 10
1677.439266258261
 20
2502.730499398002
 10
1677.439266258261
 20
2343.730499398002
 10
1369.439266258261
 20
2343.730499398002
  0
LWPOLYLINE
  5
188F
330
1F
100
AcDbEntity
  8
0
100
AcDbPolyline
 90
        4
 70
     1
 43
0.0
 10
848.6491972140466
 20
2255.626012684048
 10
1158.649197214046
 20
2255.626012684048
 10
1158.649197214046
 20
2094.626012684048
 10
848.6491972140466
 20
2094.626012684048
  0
LWPOLYLINE
  5
1890
330
1F
100
AcDbEntity
  8
0
100
AcDbPolyline
 90
        4
 70
     1
 43
0.0
 10
845.6491972140465
 20
2258.626012684048
 10
1161.649197214046
 20
2258.626012684048
 10
1161.649197214046
 20
2091.626012684048
 10
845.6491972140465
 20
2091.626012684048
  0
LWPOLYLINE
  5
1891
330
1F
100
AcDbEntity
  8
0
100
AcDbPolyline
 90
        4
 70
     1
 43
0.0
 10
870.6491972140465
 20
2233.626012684049
 10
1136.649197214046
 20
2233.626012684049
 10
1136.649197214046
 20
2116.626012684049
 10
870.6491972140465
 20
2116.626012684049
  0
LINE
  5
1892
330
1F
100
AcDbEntity
  8
0
100
AcDbLine
 10
870.6491972140465
 20
2233.626012684049
 30
0.0
 11
848.6491972140466
 21
2255.626012684048
 31
0.0
  0
LINE
  5
1893
330
1F
100
AcDbEntity
  8
0
100
AcDbLine
 10
1136.649197214046
 20
2233.626012684049
 30
0.0
 11
1158.649197214046
 21
2255.626012684048
 31
0.0
  0
LINE
  5
1894
330
1F
100
AcDbEntity
  8
0
100
AcDbLine
 10
870.6491972140465
 20
2116.626012684049
 30
0.0
 11
848.6491972140466
 21
2094.626012684048
 31
0.0
  0
LINE
  5
1895
330
1F
100
AcDbEntity
  8
0
100
AcDbLine
 10
1136.649197214046
 20
2116.626012684049
 30
0.0
 11
1158.649197214046
 21
2094.626012684048
 31
0.0
  0
LINE
  5
189F
102
{ACAD_REACTORS
330
18A9
102
}
330
1F
100
AcDbEntity
  8
0
100
AcDbLine
 10
1161.649197214046
 20
2314.32366620843
 30
0.0
 11
845.6491972140465
 21
2314.32366620843
 31
0.0
  0
LINE
  5
18A2
102
{ACAD_REACTORS
330
18A9
102
}
330
1F
100
AcDbEntity
  8
0
100
AcDbLine
 10
1161.649197214046
 20
2336.32366620843
 30
0.0
 11
1161.649197214046
 21
2311.323666208429
 31
0.0
  0
LINE
  5
18A3
102
{ACAD_REACTORS
330
18A9
102
}
330
1F
100
AcDbEntity
  8
0
100
AcDbLine
 10
1161.649197214046
 20
2311.323666208429
 30
0.0
 11
845.6491972140465
 21
2311.323666208429
 31
0.0
  0
LINE
  5
18A4
102
{ACAD_REACTORS
330
18A9
102
}
330
1F
100
AcDbEntity
  8
0
100
AcDbLine
 10
845.6491972140465
 20
2311.323666208429
 30
0.0
 11
845.6491972140465
 21
2336.32366620843
 31
0.0
  0
LINE
  5
18A7
102
{ACAD_REACTORS
330
18A9
102
}
330
1F
100
AcDbEntity
  8
0
100
AcDbLine
 10
1161.649197214046
 20
2336.32366620843
 30
0.0
 11
845.6491972140467
 21
2336.32366620843
 31
0.0
  0
LWPOLYLINE
  5
18AA
330
1F
100
AcDbEntity
  8
0
100
AcDbPolyline
 90
        4
 70
     1
 43
0.0
 10
849.6491972140466
 20
2514.32366620843
 10
1157.649197214046
 20
2514.32366620843
 10
1157.649197214046
 20
2314.32366620843
 10
849.6491972140466
 20
2314.32366620843
  0
LINE
  5
18B0
330
1F
100
AcDbEntity
  8
0
100
AcDbLine
 10
694.6491972140465
 20
2314.32366620843
 30
0.0
 11
527.6491972140465
 21
2314.32366620843
 31
0.0
  0
LINE
  5
18B1
330
1F
100
AcDbEntity
  8
0
100
AcDbLine
 10
694.6491972140465
 20
2336.32366620843
 30
0.0
 11
694.6491972140465
 21
2311.323666208429
 31
0.0
  0
LINE
  5
18B2
330
1F
100
AcDbEntity
  8
0
100
AcDbLine
 10
694.6491972140465
 20
2311.323666208429
 30
0.0
 11
527.6491972140465
 21
2311.323666208429
 31
0.0
  0
LINE
  5
18B3
330
1F
100
AcDbEntity
  8
0
100
AcDbLine
 10
527.6491972140465
 20
2311.323666208429
 30
0.0
 11
527.6491972140465
 21
2336.32366620843
 31
0.0
  0
LINE
  5
18B4
330
1F
100
AcDbEntity
  8
0
100
AcDbLine
 10
694.6491972140465
 20
2336.32366620843
 30
0.0
 11
527.6491972140466
 21
2336.32366620843
 31
0.0
  0
LWPOLYLINE
  5
18B5
330
1F
100
AcDbEntity
  8
0
100
AcDbPolyline
 90
        4
 70
     1
 43
0.0
 10
531.6491972140465
 20
2514.32366620843
 10
690.6491972140465
 20
2514.32366620843
 10
690.6491972140465
 20
2314.32366620843
 10
531.6491972140465
 20
2314.32366620843
  0
LINE
  5
190F
102
{ACAD_REACTORS
330
1918
330
1A1E
102
}
330
1F
100
AcDbEntity
  8
0
100
AcDbLine
 10
2658.988216678937
 20
2533.129380304997
 30
0.0
 11
2658.988216678937
 21
2533.129380304997
 31
0.0
  0
LWPOLYLINE
  5
1910
102
{ACAD_REACTORS
330
1918
330
1A1E
102
}
330
1F
100
AcDbEntity
  8
0
100
AcDbPolyline
 90
        4
 70
     1
 43
0.0
 10
2638.988216678937
 20
2533.129380304997
 10
2668.988216678937
 20
2533.129380304997
 10
2668.988216678937
 20
2530.129380304996
 10
2638.988216678937
 20
2530.129380304996
  0
LWPOLYLINE
  5
1911
102
{ACAD_REACTORS
330
1918
330
1A1E
102
}
330
1F
100
AcDbEntity
  8
0
100
AcDbPolyline
 90
        4
 70
     1
 43
0.0
 10
2684.332426808183
 20
2576.629380304996
 10
2969.304618103869
 20
2576.629380304996
 10
2969.304618103869
 20
2551.629380304996
 10
2701.031156618962
 20
2551.629380304996
  0
LINE
  5
1912
102
{ACAD_REACTORS
330
1918
330
1A1E
102
}
330
1F
100
AcDbEntity
  8
0
100
AcDbLine
 10
2638.988216678937
 20
2533.129380304997
 30
0.0
 11
2668.988216678937
 21
2533.129380304997
 31
0.0
  0
LINE
  5
1913
102
{ACAD_REACTORS
330
1918
330
1A1E
102
}
330
1F
100
AcDbEntity
  8
0
100
AcDbLine
 10
2684.332426808183
 20
2576.629380304996
 30
0.0
 11
2638.988216678937
 21
2550.449888380685
 31
0.0
  0
LINE
  5
1914
102
{ACAD_REACTORS
330
1918
330
1A1E
102
}
330
1F
100
AcDbEntity
  8
0
100
AcDbLine
 10
2638.988216678937
 20
2550.449888380685
 30
0.0
 11
2638.988216678937
 21
2533.129380304997
 31
0.0
  0
LINE
  5
1915
102
{ACAD_REACTORS
330
1918
330
1A1E
102
}
330
1F
100
AcDbEntity
  8
0
100
AcDbLine
 10
2699.027309041668
 20
2554.629380304996
 30
0.0
 11
2969.304618103869
 21
2554.629380304996
 31
0.0
  0
CIRCLE
  5
1916
102
{ACAD_REACTORS
330
1918
330
1A1E
102
}
330
1F
100
AcDbEntity
  8
0
100
AcDbCircle
 10
2651.308724754626
 20
2543.129380304996
 30
0.0
 40
2.924791370945213
  0
LINE
  5
1917
102
{ACAD_REACTORS
330
1918
330
1A1E
102
}
330
1F
100
AcDbEntity
  8
0
100
AcDbLine
 10
2668.988216678937
 20
2533.129380304997
 30
0.0
 11
2701.031156618962
 21
2551.629380304996
 31
0.0
  0
LWPOLYLINE
  5
191A
102
{ACAD_REACTORS
330
192D
102
}
330
1F
100
AcDbEntity
  8
0
 62
     1
100
AcDbPolyline
 90
        4
 70
     1
 43
0.0
 10
2969.304618103869
 20
2052.391253126093
 10
3169.30461810387
 20
2052.391253126093
 10
3169.30461810387
 20
1992.391253126093
 10
2969.304618103869
 20
1992.391253126093
  0
LWPOLYLINE
  5
191B
330
1F
100
AcDbEntity
  8
0
 62
     1
100
AcDbPolyline
 90
        4
 70
     1
 43
0.0
 10
3259.30461810387
 20
2035.891253126093
 10
3729.304618103869
 20
2035.891253126093
 10
3729.304618103869
 20
2008.891253126093
 10
3259.30461810387
 20
2008.891253126093
  0
LWPOLYLINE
  5
191C
330
1F
100
AcDbEntity
  8
0
 62
     1
100
AcDbPolyline
 90
        4
 70
     1
 43
0.0
 10
3169.30461810387
 20
2042.391253126093
 10
3259.30461810387
 20
2042.391253126093
 10
3259.30461810387
 20
2002.391253126093
 10
3169.30461810387
 20
2002.391253126093
  0
CIRCLE
  5
191D
102
{ACAD_REACTORS
330
192D
102
}
330
1F
100
AcDbEntity
  8
0
 62
     1
100
AcDbCircle
 10
3109.30461810387
 20
2022.391253126093
 30
0.0
 40
11.25
  0
CIRCLE
  5
191E
102
{ACAD_REACTORS
330
192D
102
}
330
1F
100
AcDbEntity
  8
0
 62
     1
100
AcDbCircle
 10
3069.30461810387
 20
2022.391253126093
 30
0.0
 40
11.25
  0
CIRCLE
  5
191F
102
{ACAD_REACTORS
330
192D
102
}
330
1F
100
AcDbEntity
  8
0
 62
     1
100
AcDbCircle
 10
3029.30461810387
 20
2022.391253126093
 30
0.0
 40
11.25
  0
CIRCLE
  5
1920
102
{ACAD_REACTORS
330
192D
102
}
330
1F
100
AcDbEntity
  8
0
 62
     1
100
AcDbCircle
 10
3149.30461810387
 20
2022.391253126093
 30
0.0
 40
11.25
  0
ELLIPSE
  5
1921
102
{ACAD_REACTORS
330
192D
330
192E
102
}
330
1F
100
AcDbEntity
  8
0
 62
     1
100
AcDbEllipse
 10
3049.30461810387
 20
2048.372015239626
 30
0.0
 11
-11.25
 21
0.0
 31
0.0
210
0.0
220
0.0
230
1.0
 40
0.6685289803143759
 41
0.0
 42
3.141592653589793
  0
ELLIPSE
  5
1922
102
{ACAD_REACTORS
330
192D
330
192E
102
}
330
1F
100
AcDbEntity
  8
0
 62
     1
100
AcDbEllipse
 10
3049.30461810387
 20
2048.372015239626
 30
0.0
 11
-11.25
 21
0.0
 31
0.0
210
0.0
220
0.0
230
1.0
 40
0.3314710196856645
 41
3.141592653589793
 42
6.283185307179586
  0
ELLIPSE
  5
1923
102
{ACAD_REACTORS
330
192D
330
192F
102
}
330
1F
100
AcDbEntity
  8
0
 62
     1
100
AcDbEllipse
 10
3089.30461810387
 20
2048.372015239626
 30
0.0
 11
-11.25
 21
0.0
 31
0.0
210
0.0
220
0.0
230
1.0
 40
0.6685289803143759
 41
0.0
 42
3.141592653589793
  0
ELLIPSE
  5
1924
102
{ACAD_REACTORS
330
192D
330
192F
102
}
330
1F
100
AcDbEntity
  8
0
 62
     1
100
AcDbEllipse
 10
3089.30461810387
 20
2048.372015239626
 30
0.0
 11
-11.25
 21
0.0
 31
0.0
210
0.0
220
0.0
230
1.0
 40
0.3314710196856645
 41
3.141592653589793
 42
6.283185307179586
  0
ELLIPSE
  5
1925
102
{ACAD_REACTORS
330
192D
330
1930
102
}
330
1F
100
AcDbEntity
  8
0
 62
     1
100
AcDbEllipse
 10
3129.30461810387
 20
2048.372015239626
 30
0.0
 11
-11.25
 21
0.0
 31
0.0
210
0.0
220
0.0
230
1.0
 40
0.6685289803143759
 41
0.0
 42
3.141592653589793
  0
ELLIPSE
  5
1926
102
{ACAD_REACTORS
330
192D
330
1930
102
}
330
1F
100
AcDbEntity
  8
0
 62
     1
100
AcDbEllipse
 10
3129.30461810387
 20
2048.372015239626
 30
0.0
 11
-11.25
 21
0.0
 31
0.0
210
0.0
220
0.0
230
1.0
 40
0.3314710196856645
 41
3.141592653589793
 42
6.283185307179586
  0
ELLIPSE
  5
1927
102
{ACAD_REACTORS
330
192D
330
1931
102
}
330
1F
100
AcDbEntity
  8
0
 62
     1
100
AcDbEllipse
 10
3049.30461810387
 20
1996.410491012559
 30
0.0
 11
-11.25
 21
0.0
 31
0.0
210
0.0
220
0.0
230
-1.0
 40
0.6685289803143759
 41
0.0
 42
3.141592653589793
  0
ELLIPSE
  5
1928
102
{ACAD_REACTORS
330
192D
330
1931
102
}
330
1F
100
AcDbEntity
  8
0
 62
     1
100
AcDbEllipse
 10
3049.30461810387
 20
1996.410491012559
 30
0.0
 11
-11.25
 21
0.0
 31
0.0
210
0.0
220
0.0
230
-1.0
 40
0.3314710196856645
 41
3.141592653589793
 42
6.283185307179586
  0
ELLIPSE
  5
1929
102
{ACAD_REACTORS
330
192D
330
1932
102
}
330
1F
100
AcDbEntity
  8
0
 62
     1
100
AcDbEllipse
 10
3089.30461810387
 20
1996.410491012559
 30
0.0
 11
-11.25
 21
0.0
 31
0.0
210
0.0
220
0.0
230
-1.0
 40
0.6685289803143759
 41
0.0
 42
3.141592653589793
  0
ELLIPSE
  5
192A
102
{ACAD_REACTORS
330
192D
330
1932
102
}
330
1F
100
AcDbEntity
  8
0
 62
     1
100
AcDbEllipse
 10
3089.30461810387
 20
1996.410491012559
 30
0.0
 11
-11.25
 21
0.0
 31
0.0
210
0.0
220
0.0
230
-1.0
 40
0.3314710196856645
 41
3.141592653589793
 42
6.283185307179586
  0
ELLIPSE
  5
192B
102
{ACAD_REACTORS
330
192D
330
1933
102
}
330
1F
100
AcDbEntity
  8
0
 62
     1
100
AcDbEllipse
 10
3129.30461810387
 20
1996.410491012559
 30
0.0
 11
-11.25
 21
0.0
 31
0.0
210
0.0
220
0.0
230
-1.0
 40
0.6685289803143759
 41
0.0
 42
3.141592653589793
  0
ELLIPSE
  5
192C
102
{ACAD_REACTORS
330
192D
330
1933
102
}
330
1F
100
AcDbEntity
  8
0
 62
     1
100
AcDbEllipse
 10
3129.30461810387
 20
1996.410491012559
 30
0.0
 11
-11.25
 21
0.0
 31
0.0
210
0.0
220
0.0
230
-1.0
 40
0.3314710196856645
 41
3.141592653589793
 42
6.283185307179586
  0
LWPOLYLINE
  5
1941
330
1F
100
AcDbEntity
  8
0
 62
     5
100
AcDbPolyline
 90
        4
 70
     1
 43
0.0
 10
2177.76880545419
 20
1820.257269502515
 10
2377.76880545419
 20
1820.257269502515
 10
2377.76880545419
 20
1680.257269502515
 10
2177.76880545419
 20
1680.257269502515
  0
LWPOLYLINE
  5
1942
330
1F
100
AcDbEntity
  8
0
 62
     5
100
AcDbPolyline
 90
        6
 70
     0
 43
0.0
 10
2372.76880545419
 20
1642.562323567662
 10
2377.76880545419
 20
1642.562323567662
 10
2377.76880545419
 20
1472.562323567662
 10
2087.76880545419
 20
1472.562323567662
 10
2087.76880545419
 20
1642.562323567662
 10
2092.76880545419
 20
1642.562323567662
  0
LWPOLYLINE
  5
1943
330
1F
100
AcDbEntity
  8
0
 62
     5
100
AcDbPolyline
 90
        6
 70
     0
 43
0.0
 10
2045.073859519337
 20
1642.562323567662
 10
2050.073859519337
 20
1642.562323567662
 10
2050.073859519337
 20
1472.562323567662
 10
1910.073859519337
 20
1472.562323567662
 10
1910.073859519337
 20
1642.562323567662
 10
1915.073859519337
 20
1642.562323567662
  0
LINE
  5
1949
330
1F
100
AcDbEntity
  8
0
 62
     5
100
AcDbLine
 10
2177.76880545419
 20
1815.257269502515
 30
0.0
 11
2377.76880545419
 21
1815.257269502515
 31
0.0
  0
LINE
  5
194A
330
1F
100
AcDbEntity
  8
0
 62
     5
100
AcDbLine
 10
2372.76880545419
 20
1815.257269502515
 30
0.0
 11
2372.76880545419
 21
1685.257269502515
 31
0.0
  0
LINE
  5
194B
330
1F
100
AcDbEntity
  8
0
 62
     5
100
AcDbLine
 10
2377.76880545419
 20
1685.257269502515
 30
0.0
 11
2177.76880545419
 21
1685.257269502515
 31
0.0
  0
LINE
  5
194C
330
1F
100
AcDbEntity
  8
0
 62
     5
100
AcDbLine
 10
2182.76880545419
 20
1685.257269502515
 30
0.0
 11
2182.76880545419
 21
1815.257269502515
 31
0.0
  0
LINE
  5
194E
330
1F
100
AcDbEntity
  8
0
 62
     5
100
AcDbLine
 10
2372.76880545419
 20
1642.562323567662
 30
0.0
 11
2372.76880545419
 21
1477.562323567662
 31
0.0
  0
LINE
  5
194F
330
1F
100
AcDbEntity
  8
0
 62
     5
100
AcDbLine
 10
2377.76880545419
 20
1477.562323567662
 30
0.0
 11
2087.76880545419
 21
1477.562323567662
 31
0.0
  0
LINE
  5
1950
330
1F
100
AcDbEntity
  8
0
 62
     5
100
AcDbLine
 10
2092.76880545419
 20
1477.562323567662
 30
0.0
 11
2092.76880545419
 21
1642.562323567662
 31
0.0
  0
LINE
  5
1952
330
1F
100
AcDbEntity
  8
0
 62
     5
100
AcDbLine
 10
2045.073859519337
 20
1642.562323567662
 30
0.0
 11
2045.073859519337
 21
1477.562323567662
 31
0.0
  0
LINE
  5
1953
330
1F
100
AcDbEntity
  8
0
 62
     5
100
AcDbLine
 10
2050.073859519337
 20
1477.562323567662
 30
0.0
 11
1910.073859519337
 21
1477.562323567662
 31
0.0
  0
LINE
  5
1954
330
1F
100
AcDbEntity
  8
0
 62
     5
100
AcDbLine
 10
1915.073859519337
 20
1477.562323567662
 30
0.0
 11
1915.073859519337
 21
1642.562323567662
 31
0.0
  0
LINE
  5
1955
102
{ACAD_REACTORS
330
1960
102
}
330
1F
100
AcDbEntity
  8
0
 62
     1
100
AcDbLine
 10
2372.76880545419
 20
1748.257269502515
 30
0.0
 11
2372.76880545419
 21
1685.257269502515
 31
0.0
  0
LINE
  5
1956
102
{ACAD_REACTORS
330
1960
102
}
330
1F
100
AcDbEntity
  8
0
 62
     1
100
AcDbLine
 10
2372.76880545419
 20
1685.257269502515
 30
0.0
 11
2182.76880545419
 21
1685.257269502515
 31
0.0
  0
LINE
  5
1957
102
{ACAD_REACTORS
330
1960
102
}
330
1F
100
AcDbEntity
  8
0
 62
     1
100
AcDbLine
 10
2182.76880545419
 20
1685.257269502515
 30
0.0
 11
2182.76880545419
 21
1715.257269502515
 31
0.0
  0
LINE
  5
1959
102
{ACAD_REACTORS
330
1960
102
}
330
1F
100
AcDbEntity
  8
0
 62
     1
100
AcDbLine
 10
2182.76880545419
 20
1715.257269502515
 30
0.0
 11
2195.76880545419
 21
1748.257269502515
 31
0.0
  0
LINE
  5
195A
102
{ACAD_REACTORS
330
1960
102
}
330
1F
100
AcDbEntity
  8
0
 62
     1
100
AcDbLine
 10
2372.76880545419
 20
1748.257269502515
 30
0.0
 11
2195.76880545419
 21
1748.257269502515
 31
0.0
  0
LINE
  5
195B
102
{ACAD_REACTORS
330
1960
102
}
330
1F
100
AcDbEntity
  8
0
 62
     1
100
AcDbLine
 10
2372.76880545419
 20
1694.257269502515
 30
0.0
 11
2182.76880545419
 21
1694.257269502515
 31
0.0
  0
LINE
  5
195C
102
{ACAD_REACTORS
330
1960
102
}
330
1F
100
AcDbEntity
  8
0
 62
     1
100
AcDbLine
 10
2372.76880545419
 20
1700.257269502515
 30
0.0
 11
2182.76880545419
 21
1700.257269502515
 31
0.0
  0
CIRCLE
  5
195F
102
{ACAD_REACTORS
330
1960
102
}
330
1F
100
AcDbEntity
  8
0
 62
     1
100
AcDbCircle
 10
2352.76880545419
 20
1697.257269502515
 30
0.0
 40
4.0
  0
LINE
  5
1971
102
{ACAD_REACTORS
330
198C
102
}
330
1F
100
AcDbEntity
  8
0
 62
     1
100
AcDbLine
 10
1978.073859519337
 20
1584.562323567662
 30
0.0
 11
1978.073859519337
 21
1477.562323567662
 31
0.0
  0
LINE
  5
1972
102
{ACAD_REACTORS
330
198C
102
}
330
1F
100
AcDbEntity
  8
0
 62
     1
100
AcDbLine
 10
1978.073859519337
 20
1477.562323567662
 30
0.0
 11
1926.073859519337
 21
1477.562323567662
 31
0.0
  0
LINE
  5
1974
102
{ACAD_REACTORS
330
198C
102
}
330
1F
100
AcDbEntity
  8
0
 62
     1
100
AcDbLine
 10
1930.073859519337
 20
1564.562323567662
 30
0.0
 11
1978.073859519337
 21
1584.562323567662
 31
0.0
  0
LINE
  5
1979
102
{ACAD_REACTORS
330
198C
102
}
330
1F
100
AcDbEntity
  8
0
 62
     1
100
AcDbLine
 10
1930.073859519337
 20
1564.562323567662
 30
0.0
 11
1930.073859519337
 21
1477.562323567662
 31
0.0
  0
LINE
  5
197A
102
{ACAD_REACTORS
330
198C
102
}
330
1F
100
AcDbEntity
  8
0
 62
     1
100
AcDbLine
 10
1924.073859519337
 20
1564.562323567662
 30
0.0
 11
1924.073859519337
 21
1477.562323567662
 31
0.0
  0
LINE
  5
1989
102
{ACAD_REACTORS
330
198C
102
}
330
1F
100
AcDbEntity
  8
0
 62
     1
100
AcDbLine
 10
1915.073859519337
 20
1573.943155087309
 30
0.0
 11
1915.073859519337
 21
1477.562323567662
 31
0.0
  0
LINE
  5
198B
102
{ACAD_REACTORS
330
198C
102
}
330
1F
100
AcDbEntity
  8
0
 62
     1
100
AcDbLine
 10
1915.073859519337
 20
1573.943155087309
 30
0.0
 11
1924.073859519337
 21
1564.562323567662
 31
0.0
  0
LINE
  5
198D
102
{ACAD_REACTORS
330
1992
102
}
330
1F
100
AcDbEntity
  8
0
 62
     1
100
AcDbLine
 10
1935.073859519337
 20
1566.645656900995
 30
0.0
 11
2045.073859519337
 21
1612.478990234328
 31
0.0
  0
LINE
  5
198E
102
{ACAD_REACTORS
330
1992
102
}
330
1F
100
AcDbEntity
  8
0
 62
     1
100
AcDbLine
 10
1936.15078259626
 20
1569.26104151638
 30
0.0
 11
2045.073859519337
 21
1614.645656900995
 31
0.0
  0
ARC
  5
1990
102
{ACAD_REACTORS
330
1992
102
}
330
1F
100
AcDbEntity
  8
0
 62
     1
100
AcDbCircle
 10
1936.920013365491
 20
1567.414887670226
 30
0.0
 40
2.0
100
AcDbArc
 50
112.6198649480419
 51
202.6198649480479
  0
LINE
  5
1991
102
{ACAD_REACTORS
330
1992
102
}
330
1F
100
AcDbEntity
  8
0
 62
     1
100
AcDbLine
 10
2045.073859519337
 20
1614.645656900995
 30
0.0
 11
2045.073859519337
 21
1612.478990234328
 31
0.0
  0
DIMENSION
  5
1994
330
1F
100
AcDbEntity
  8
0
100
AcDbDimension
  2
*D3
 10
2377.76880545419
 20
1838.726746085189
 30
0.0
 11
2277.76880545419
 21
1844.351746085188
 31
0.0
 70
    32
 71
     5
 42
200.0
  3
ISO-25
100
AcDbAlignedDimension
 13
2177.76880545419
 23
1820.257269502515
 33
0.0
 14
2377.76880545419
 24
1820.257269502515
 34
0.0
100
AcDbRotatedDimension
  0
DIMENSION
  5
19A1
330
1F
100
AcDbEntity
  8
0
100
AcDbDimension
  2
*D4
 10
2147.514836186761
 20
1680.257269502515
 30
0.0
 11
2141.889836186761
 21
1750.257269502515
 31
0.0
 70
    32
 71
     5
 42
140.0
  3
ISO-25
100
AcDbAlignedDimension
 13
2177.76880545419
 23
1820.257269502515
 33
0.0
 14
2177.76880545419
 24
1680.257269502515
 34
0.0
 50
90.0
100
AcDbRotatedDimension
  0
DIMENSION
  5
19AE
330
1F
100
AcDbEntity
  8
0
100
AcDbDimension
  2
*D5
 10
2421.679756006133
 20
1472.562323567662
 30
0.0
 11
2416.054756006133
 21
1557.562323567662
 31
0.0
 70
    32
 71
     5
 42
169.9999999999997
  3
ISO-25
100
AcDbAlignedDimension
 13
2377.76880545419
 23
1642.562323567662
 33
0.0
 14
2377.76880545419
 24
1472.562323567662
 34
0.0
 50
90.0
100
AcDbRotatedDimension
  0
DIMENSION
  5
19D6
330
1F
100
AcDbEntity
  8
0
 62
     5
100
AcDbDimension
  2
*D6
 10
2034.877032496418
 20
1636.951375089334
 30
0.0
 11
1974.893058137443
 21
1618.954580217539
 31
0.0
 70
    33
 71
     5
 42
124.583333333333
  3
ISO-25
100
AcDbAlignedDimension
 13
1930.073859519337
 23
1564.562323567662
 33
0.0
 14
2045.073859519337
 24
1612.478990234328
 34
0.0
  0
CIRCLE
  5
19FB
330
1F
100
AcDbEntity
  8
0
100
AcDbCircle
 10
2959.304618103869
 20
2566.629380304997
 30
0.0
 40
4.0
  0
CIRCLE
  5
19FE
102
{ACAD_REACTORS
330
1A1E
102
}
330
1F
100
AcDbEntity
  8
0
100
AcDbCircle
 10
2959.304618103869
 20
2566.629380304997
 30
0.0
 40
14.3499999999999
  0
LWPOLYLINE
  5
1A0F
102
{ACAD_REACTORS
330
1A11
330
1A1C
102
}
330
1F
100
AcDbEntity
  8
0
100
AcDbPolyline
 90
        9
 70
     0
 43
0.0
 10
2944.954618103869
 20
2069.891253126093
 10
2945.704618103869
 20
2081.391253126093
 10
2972.90461810387
 20
2081.391253126093
 10
2973.65461810387
 20
2069.891253126093
 10
2966.80461810387
 20
2069.891253126093
 10
2966.80461810387
 20
2066.391253126093
 10
2951.804618103869
 20
2066.391253126093
 10
2951.804618103869
 20
2069.891253126093
 10
2944.954618103869
 20
2069.891253126093
  0
LINE
  5
1A10
102
{ACAD_REACTORS
330
1A11
330
1A1C
102
}
330
1F
100
AcDbEntity
  8
0
100
AcDbLine
 10
2951.804618103869
 20
2069.891253126093
 30
0.0
 11
2966.80461810387
 21
2069.891253126093
 31
0.0
  0
LWPOLYLINE
  5
1A12
102
{ACAD_REACTORS
330
1A14
330
1A1C
102
}
330
1F
100
AcDbEntity
  8
0
100
AcDbPolyline
 90
        9
 70
     0
 43
0.0
 10
2944.954618103869
 20
1974.891253126093
 10
2945.704618103869
 20
1963.391253126093
 10
2972.90461810387
 20
1963.391253126093
 10
2973.65461810387
 20
1974.891253126093
 10
2966.80461810387
 20
1974.891253126093
 10
2966.80461810387
 20
1978.391253126093
 10
2951.804618103869
 20
1978.391253126093
 10
2951.804618103869
 20
1974.891253126093
 10
2944.954618103869
 20
1974.891253126093
  0
LINE
  5
1A13
102
{ACAD_REACTORS
330
1A14
330
1A1C
102
}
330
1F
100
AcDbEntity
  8
0
100
AcDbLine
 10
2951.804618103869
 20
1974.891253126093
 30
0.0
 11
2966.80461810387
 21
1974.891253126093
 31
0.0
  0
LWPOLYLINE
  5
1A16
102
{ACAD_REACTORS
330
1A1A
330
1A1C
102
}
330
1F
100
AcDbEntity
  8
0
100
AcDbPolyline
 90
        9
 70
     0
 43
0.0
 10
2636.958724754626
 20
2069.891253126093
 10
2637.708724754626
 20
2081.391253126093
 10
2664.908724754626
 20
2081.391253126093
 10
2665.658724754626
 20
2069.891253126093
 10
2658.808724754626
 20
2069.891253126093
 10
2658.808724754626
 20
2066.391253126093
 10
2643.808724754626
 20
2066.391253126093
 10
2643.808724754626
 20
2069.891253126093
 10
2636.958724754626
 20
2069.891253126093
  0
LINE
  5
1A17
102
{ACAD_REACTORS
330
1A1A
330
1A1C
102
}
330
1F
100
AcDbEntity
  8
0
100
AcDbLine
 10
2643.808724754626
 20
2069.891253126093
 30
0.0
 11
2658.808724754626
 21
2069.891253126093
 31
0.0
  0
LWPOLYLINE
  5
1A18
102
{ACAD_REACTORS
330
1A1B
330
1A1C
102
}
330
1F
100
AcDbEntity
  8
0
100
AcDbPolyline
 90
        9
 70
     0
 43
0.0
 10
2636.958724754626
 20
1974.891253126093
 10
2637.708724754626
 20
1963.391253126093
 10
2664.908724754626
 20
1963.391253126093
 10
2665.658724754626
 20
1974.891253126093
 10
2658.808724754626
 20
1974.891253126093
 10
2658.808724754626
 20
1978.391253126093
 10
2643.808724754626
 20
1978.391253126093
 10
2643.808724754626
 20
1974.891253126093
 10
2636.958724754626
 20
1974.891253126093
  0
LINE
  5
1A19
102
{ACAD_REACTORS
330
1A1B
330
1A1C
102
}
330
1F
100
AcDbEntity
  8
0
100
AcDbLine
 10
2643.808724754626
 20
1974.891253126093
 30
0.0
 11
2658.808724754626
 21
1974.891253126093
 31
0.0
  0
CIRCLE
  5
1A1D
102
{ACAD_REACTORS
330
1A1E
102
}
330
1F
100
AcDbEntity
  8
0
100
AcDbCircle
 10
2651.308724754626
 20
2543.129380304996
 30
0.0
 40
14.3499999999999
  0
CIRCLE
  5
1A23
330
1F
100
AcDbEntity
  8
0
100
AcDbCircle
 10
905.8669772138873
 20
3406.238459214644
 30
0.0
 40
22.34785387154624
  0
TEXT
  5
1A27
330
1F
100
AcDbEntity
  8
0
100
AcDbText
 10
898.9488039860002
 20
3403.634986328015
 30
0.0
 40
20.0
  1
M
100
AcDbText
  0
TEXT
  5
1A28
330
1F
100
AcDbEntity
  8
0
100
AcDbText
 10
897.7034599120669
 20
3389.509640129068
 30
0.0
 40
10.0
  1
GB
100
AcDbText
  0
CIRCLE
  5
1A33
330
1F
100
AcDbEntity
  8
0
100
AcDbCircle
 10
617.3906458820129
 20
3406.238459214644
 30
0.0
 40
22.34785387154624
  0
TEXT
  5
1A34
330
1F
100
AcDbEntity
  8
0
100
AcDbText
 10
610.4724726541258
 20
3403.634986328015
 30
0.0
 40
20.0
  1
M
100
AcDbText
  0
TEXT
  5
1A35
330
1F
100
AcDbEntity
  8
0
100
AcDbText
 10
608.2971332553222
 20
3392.917508396168
 30
0.0
 40
5.0
  1
AMMO
100
AcDbText
  0
LINE
  5
1A37
330
1F
100
AcDbEntity
  8
0
100
AcDbLine
 10
905.8669772138873
 20
3478.260771606445
 30
0.0
 11
858.4256839878921
 21
3478.260771606445
 31
0.0
  0
LINE
  5
1A3A
330
1F
100
AcDbEntity
  8
0
100
AcDbLine
 10
617.3906458820129
 20
3334.216146822844
 30
0.0
 11
617.3906458820129
 21
3383.890605343098
 31
0.0
  0
LINE
  5
1A3D
330
1F
100
AcDbEntity
  8
0
100
AcDbLine
 10
777.1742163684903
 20
3406.238459214644
 30
0.0
 11
777.1742163684903
 21
3334.216146822844
 31
0.0
  0
LINE
  5
1A3F
330
1F
100
AcDbEntity
  8
0
100
AcDbLine
 10
777.1742163684903
 20
3334.216146822844
 30
0.0
 11
841.5205967911887
 21
3334.216146822844
 31
0.0
  0
LINE
  5
1A40
330
1F
100
AcDbEntity
  8
0
100
AcDbLine
 10
905.8669772138873
 20
3334.216146822844
 30
0.0
 11
905.8669772138873
 21
3383.890605343098
 31
0.0
  0
LINE
  5
1A41
330
1F
100
AcDbEntity
  8
0
100
AcDbLine
 10
777.1742163684903
 20
3406.238459214644
 30
0.0
 11
767.4140597247997
 21
3423.143546411348
 31
0.0
  0
LINE
  5
1A43
330
1F
100
AcDbEntity
  8
0
100
AcDbLine
 10
777.1742163684903
 20
3423.143546411348
 30
0.0
 11
777.1742163684903
 21
3478.260771606445
 31
0.0
  0
LINE
  5
1A44
330
1F
100
AcDbEntity
  8
0
100
AcDbLine
 10
746.0834067274099
 20
3406.238459214644
 30
0.0
 11
736.3232500837193
 21
3423.143546411348
 31
0.0
  0
LINE
  5
1A45
330
1F
100
AcDbEntity
  8
0
100
AcDbLine
 10
746.0834067274099
 20
3423.143546411348
 30
0.0
 11
746.0834067274099
 21
3478.260771606445
 31
0.0
  0
LINE
  5
1A47
330
1F
100
AcDbEntity
  8
0
  6
ACAD_ISO03W100
 48
0.3
100
AcDbLine
 10
741.2033284055646
 20
3414.691002812995
 30
0.0
 11
797.7520280422159
 21
3414.691002812995
 31
0.0
  0
MTEXT
  5
1A48
330
1F
100
AcDbEntity
  8
0
100
AcDbMText
 10
799.2905776162424
 20
3417.148284786016
 30
0.0
 40
5.0
 41
46.77192263045074
 71
     1
 72
     5
  1
GACHETTE
 73
     1
 44
1.0
  0
LINE
  5
1A50
330
1F
100
AcDbEntity
  8
0
100
AcDbLine
 10
746.0834067274099
 20
3406.238459214644
 30
0.0
 11
746.0834067274099
 21
3334.216146822844
 31
0.0
  0
LINE
  5
1A51
330
1F
100
AcDbEntity
  8
0
100
AcDbLine
 10
841.5205967911887
 20
3478.260771606445
 30
0.0
 11
858.4256839878921
 21
3488.020928250135
 31
0.0
  0
LINE
  5
1A53
330
1F
100
AcDbEntity
  8
0
100
AcDbLine
 10
746.0834067274099
 20
3334.216146822844
 30
0.0
 11
686.2449264409924
 21
3334.216146822844
 31
0.0
  0
LINE
  5
1A54
330
1F
100
AcDbEntity
  8
0
100
AcDbLine
 10
746.0834067274099
 20
3478.260771606445
 30
0.0
 11
617.3906458820129
 21
3478.260771606445
 31
0.0
  0
LINE
  5
1A56
330
1F
100
AcDbEntity
  8
0
100
AcDbLine
 10
841.5205967911891
 20
3478.260771606445
 30
0.0
 11
777.1742163684903
 21
3478.260771606445
 31
0.0
  0
MTEXT
  5
1A59
330
1F
100
AcDbEntity
  8
0
100
AcDbMText
 10
838.3697393932289
 20
3496.487862048889
 30
0.0
 40
5.0
 41
46.7719
 71
     1
 72
     5
  1
SECURITE
 73
     1
 44
1.0
  0
LINE
  5
1A5B
330
1F
100
AcDbEntity
  8
0
100
AcDbLine
 10
617.3906458820129
 20
3428.58631308619
 30
0.0
 11
617.3906458820129
 21
3478.260771606445
 31
0.0
  0
LINE
  5
1A5C
330
1F
100
AcDbEntity
  8
0
100
AcDbLine
 10
905.8669772138873
 20
3428.58631308619
 30
0.0
 11
905.8669772138873
 21
3478.260771606445
 31
0.0
  0
LINE
  5
1A5D
330
1F
100
AcDbEntity
  8
0
100
AcDbLine
 10
841.5205967911887
 20
3344.689726910187
 30
0.0
 11
841.5205967911887
 21
3323.742566735501
 31
0.0
  0
LWPOLYLINE
  5
1A60
330
1F
100
AcDbEntity
  8
0
100
AcDbPolyline
 90
        4
 70
     1
 43
0.0
 10
846.0284969274699
 20
3330.488977799557
 10
844.5258722042572
 20
3330.488977799557
 10
844.5258722042572
 20
3337.943315846131
 10
846.0284969274699
 20
3337.943315846131
  0
MTEXT
  5
1A61
330
1F
100
AcDbEntity
  8
0
100
AcDbMText
 10
838.5725518596519
 20
3317.89552108455
 30
0.0
 40
5.0
 41
10.0611
 71
     1
 72
     5
  1
9.6V
 73
     1
 44
1.0
  0
LINE
  5
1A64
330
1F
100
AcDbEntity
  8
0
100
AcDbLine
 10
681.7370263047114
 20
3344.689726910187
 30
0.0
 11
681.7370263047114
 21
3323.742566735501
 31
0.0
  0
LWPOLYLINE
  5
1A65
330
1F
100
AcDbEntity
  8
0
100
AcDbPolyline
 90
        4
 70
     1
 43
0.0
 10
686.2449264409924
 20
3330.488977799557
 10
684.7423017177797
 20
3330.488977799557
 10
684.7423017177797
 20
3337.943315846131
 10
686.2449264409924
 20
3337.943315846131
  0
MTEXT
  5
1A66
330
1F
100
AcDbEntity
  8
0
100
AcDbMText
 10
678.7889813731744
 20
3317.89552108455
 30
0.0
 40
5.0
 41
10.0611
 71
     1
 72
     5
  1
2.4V
 73
     1
 44
1.0
  0
LINE
  5
1A67
330
1F
100
AcDbEntity
  8
0
100
AcDbLine
 10
681.7370263047112
 20
3334.216146822844
 30
0.0
 11
617.3906458820129
 21
3334.216146822844
 31
0.0
  0
LINE
  5
1A68
330
1F
100
AcDbEntity
  8
0
100
AcDbLine
 10
846.0284969274699
 20
3334.216146822844
 30
0.0
 11
905.8669772138873
 21
3334.216146822844
 31
0.0
  0
CIRCLE
  5
1A97
102
{ACAD_REACTORS
330
1AEA
102
}
330
1F
100
AcDbEntity
  8
0
 62
     1
100
AcDbCircle
 10
2384.303793016597
 20
2609.623927502715
 30
0.0
 40
3.581238449716256
  0
CIRCLE
  5
1A98
102
{ACAD_REACTORS
330
1AEA
102
}
330
1F
100
AcDbEntity
  8
0
 62
     1
100
AcDbCircle
 10
2384.303793016597
 20
2579.623927502716
 30
0.0
 40
3.581238449716256
  0
LINE
  5
1AA3
102
{ACAD_REACTORS
330
1AEB
102
}
330
1F
100
AcDbEntity
  8
0
 62
     1
100
AcDbLine
 10
2369.304618103869
 20
2498.639342360289
 30
0.0
 11
2584.301348861325
 21
2498.639342360291
 31
0.0
  0
CIRCLE
  5
1AA4
102
{ACAD_REACTORS
330
1AEB
102
}
330
1F
100
AcDbEntity
  8
0
 62
     1
100
AcDbCircle
 10
2484.300085755334
 20
2487.639342360289
 30
0.0
 40
3.581238449716256
  0
LINE
  5
1AAC
102
{ACAD_REACTORS
330
1AEB
102
}
330
1F
100
AcDbEntity
  8
0
 62
     1
100
AcDbLine
 10
2399.305538886792
 20
2477.639342360289
 30
0.0
 11
2569.302521739422
 21
2477.639342360289
 31
0.0
  0
LINE
  5
1AAD
102
{ACAD_REACTORS
330
1AEB
102
}
330
1F
100
AcDbEntity
  8
0
 62
     1
100
AcDbLine
 10
2399.305538886792
 20
2467.639342360289
 30
0.0
 11
2569.302521739422
 21
2467.639342360289
 31
0.0
  0
ARC
  5
1AAE
102
{ACAD_REACTORS
330
1AEB
102
}
330
1F
100
AcDbEntity
  8
0
 62
     1
100
AcDbCircle
 10
2399.305538886792
 20
2472.639342360289
 30
0.0
 40
5.0
100
AcDbArc
 50
90.0
 51
270.0
  0
ARC
  5
1AAF
102
{ACAD_REACTORS
330
1AEB
102
}
330
1F
100
AcDbEntity
  8
0
 62
     1
100
AcDbCircle
 10
2569.302521739422
 20
2472.639342360289
 30
0.0
 40
5.0
100
AcDbArc
 50
270.0
 51
90.0
  0
LINE
  5
1AB1
102
{ACAD_REACTORS
330
1AEB
102
}
330
1F
100
AcDbEntity
  8
0
 62
     1
100
AcDbLine
 10
2584.301348861325
 20
2498.639342360291
 30
0.0
 11
2629.30461810387
 21
2492.418427079886
 31
0.0
  0
LINE
  5
1AB2
102
{ACAD_REACTORS
330
1AEB
102
}
330
1F
100
AcDbEntity
  8
0
 62
     1
100
AcDbLine
 10
2629.30461810387
 20
2452.418427079887
 30
0.0
 11
2629.30461810387
 21
2492.418427079886
 31
0.0
  0
CIRCLE
  5
1AB3
102
{ACAD_REACTORS
330
1AEB
102
}
330
1F
100
AcDbEntity
  8
0
 62
     1
100
AcDbCircle
 10
2539.300523774079
 20
2487.639342360289
 30
0.0
 40
3.581238449716256
  0
LINE
  5
1AB8
102
{ACAD_REACTORS
330
1AEB
102
}
330
1F
100
AcDbEntity
  8
0
 62
     1
100
AcDbLine
 10
2369.304618103869
 20
2446.639342360289
 30
0.0
 11
2584.301348861283
 21
2446.639342360283
 31
0.0
  0
CIRCLE
  5
1AB9
102
{ACAD_REACTORS
330
1AEB
102
}
330
1F
100
AcDbEntity
  8
0
 62
     1
100
AcDbCircle
 10
2484.300085755334
 20
2457.639342360289
 30
0.0
 40
3.581238449716256
  0
LINE
  5
1AC2
102
{ACAD_REACTORS
330
1AEB
102
}
330
1F
100
AcDbEntity
  8
0
 62
     1
100
AcDbLine
 10
2584.301348861283
 20
2446.639342360283
 30
0.0
 11
2629.30461810387
 21
2452.418427079887
 31
0.0
  0
CIRCLE
  5
1AC3
102
{ACAD_REACTORS
330
1AEB
102
}
330
1F
100
AcDbEntity
  8
0
 62
     1
100
AcDbCircle
 10
2539.300523774079
 20
2457.639342360289
 30
0.0
 40
3.581238449716256
  0
LINE
  5
1AC4
102
{ACAD_REACTORS
330
1AEB
102
}
330
1F
100
AcDbEntity
  8
0
 62
     1
100
AcDbLine
 10
2369.304618103869
 20
2498.639342360289
 30
0.0
 11
2369.304618103869
 21
2446.639342360289
 31
0.0
  0
CIRCLE
  5
1AC5
102
{ACAD_REACTORS
330
1AEB
102
}
330
1F
100
AcDbEntity
  8
0
 62
     1
100
AcDbCircle
 10
2384.303793016597
 20
2487.639342360288
 30
0.0
 40
3.581238449716256
  0
CIRCLE
  5
1AC6
102
{ACAD_REACTORS
330
1AEB
102
}
330
1F
100
AcDbEntity
  8
0
 62
     1
100
AcDbCircle
 10
2384.303793016597
 20
2457.639342360288
 30
0.0
 40
3.581238449716256
  0
LINE
  5
1AE8
102
{ACAD_REACTORS
330
1AEA
102
}
330
1F
100
AcDbEntity
  8
0
 62
     1
100
AcDbLine
 10
2584.30134886135
 20
2620.623927502716
 30
0.0
 11
2584.301348861353
 21
2568.623927502716
 31
0.0
  0
LINE
  5
1AE9
102
{ACAD_REACTORS
330
1AEB
102
}
330
1F
100
AcDbEntity
  8
0
 62
     1
100
AcDbLine
 10
2584.301348861325
 20
2498.639342360291
 30
0.0
 11
2584.301348861283
 21
2446.639342360283
 31
0.0
  0
LINE
  5
1C76
102
{ACAD_REACTORS
330
1CC8
102
}
330
1F
100
AcDbEntity
  8
0
 62
     5
100
AcDbLine
 10
2916.30461810387
 20
2978.231415658008
 30
0.0
 11
2916.30461810387
 21
2967.731415658008
 31
0.0
  0
LINE
  5
1C77
102
{ACAD_REACTORS
330
1CC8
102
}
330
1F
100
AcDbEntity
  8
0
 62
     5
100
AcDbLine
 10
2916.30461810387
 20
2904.231415658008
 30
0.0
 11
2966.304618103869
 21
2904.231415658008
 31
0.0
  0
LINE
  5
1C78
102
{ACAD_REACTORS
330
1CC8
102
}
330
1F
100
AcDbEntity
  8
0
 62
     5
100
AcDbLine
 10
2966.304618103869
 20
2904.231415658008
 30
0.0
 11
2966.304618103869
 21
2978.231415658008
 31
0.0
  0
LINE
  5
1C79
102
{ACAD_REACTORS
330
1CC8
102
}
330
1F
100
AcDbEntity
  8
0
 62
     5
100
AcDbLine
 10
2966.304618103869
 20
2978.231415658008
 30
0.0
 11
2916.30461810387
 21
2978.231415658008
 31
0.0
  0
LINE
  5
1CA9
102
{ACAD_REACTORS
330
1CCB
102
}
330
1F
100
AcDbEntity
  8
0
 62
     5
100
AcDbLine
 10
2916.30461810387
 20
2848.579619171107
 30
0.0
 11
2916.30461810387
 21
2833.579619171107
 31
0.0
  0
LINE
  5
1CAB
102
{ACAD_REACTORS
330
1CCB
102
}
330
1F
100
AcDbEntity
  8
0
 62
     5
100
AcDbLine
 10
2966.304618103869
 20
2841.579619171107
 30
0.0
 11
2966.304618103869
 21
2848.579619171107
 31
0.0
  0
LINE
  5
1CAC
102
{ACAD_REACTORS
330
1CCB
102
}
330
1F
100
AcDbEntity
  8
0
 62
     5
100
AcDbLine
 10
2966.304618103869
 20
2848.579619171107
 30
0.0
 11
2916.30461810387
 21
2848.579619171107
 31
0.0
  0
LINE
  5
1CAD
102
{ACAD_REACTORS
330
1CCB
102
}
330
1F
100
AcDbEntity
  8
0
 62
     5
100
AcDbLine
 10
2966.304618103869
 20
2841.579619171107
 30
0.0
 11
2936.295865212523
 21
2841.579619171107
 31
0.0
  0
ARC
  5
1CAF
102
{ACAD_REACTORS
330
1CCB
102
}
330
1F
100
AcDbEntity
  8
0
 62
     5
100
AcDbCircle
 10
2936.295865212523
 20
2831.579619171107
 30
0.0
 40
10.0
100
AcDbArc
 50
90.0
 51
168.4630409671869
  0
LINE
  5
1CB0
102
{ACAD_REACTORS
330
1CCB
102
}
330
1F
100
AcDbEntity
  8
0
 62
     5
100
AcDbLine
 10
2926.497906241391
 20
2833.579619171107
 30
0.0
 11
2916.30461810387
 21
2833.579619171107
 31
0.0
  0
LINE
  5
1CB1
102
{ACAD_REACTORS
330
1CBD
102
}
330
1F
100
AcDbEntity
  8
0
 62
     1
100
AcDbLine
 10
2916.30461810387
 20
2835.579619171107
 30
0.0
 11
2916.30461810387
 21
2848.579619171107
 31
0.0
  0
LINE
  5
1CB2
102
{ACAD_REACTORS
330
1CBD
102
}
330
1F
100
AcDbEntity
  8
0
 62
     1
100
AcDbLine
 10
2896.30461810387
 20
2835.579619171107
 30
0.0
 11
2896.30461810387
 21
2848.579619171107
 31
0.0
  0
LINE
  5
1CB3
102
{ACAD_REACTORS
330
1CBD
102
}
330
1F
100
AcDbEntity
  8
0
 62
     1
100
AcDbLine
 10
2884.307283984525
 20
2835.579619171107
 30
0.0
 11
2884.307283984525
 21
2848.579619171107
 31
0.0
  0
LINE
  5
1CB4
102
{ACAD_REACTORS
330
1CBD
102
}
330
1F
100
AcDbEntity
  8
0
 62
     1
100
AcDbLine
 10
2833.307283984524
 20
2835.579619171107
 30
0.0
 11
2833.307283984524
 21
2848.579619171107
 31
0.0
  0
LWPOLYLINE
  5
1CB5
102
{ACAD_REACTORS
330
1CBD
102
}
330
1F
100
AcDbEntity
  8
0
 62
     1
100
AcDbPolyline
 90
        5
 70
     1
 43
0.0
 10
2579.30461810387
 20
2848.579619171107
 10
2932.30461810387
 20
2848.579619171107
 10
2932.30461810387
 20
2835.579619171107
 10
2592.30461810387
 20
2835.579619171107
 42
-0.4142135623730951
 10
2579.30461810387
 20
2848.579619171107
  0
CIRCLE
  5
1CB8
102
{ACAD_REACTORS
330
1CBD
102
}
330
1F
100
AcDbEntity
  8
0
 62
     1
100
AcDbCircle
 10
2924.30461810387
 20
2842.079619171107
 30
0.0
 40
6.5
  0
CIRCLE
  5
1CBE
330
1F
100
AcDbEntity
  8
0
 62
     5
100
AcDbCircle
 10
2924.30461810387
 20
2842.079619171107
 30
0.0
 40
10.30776406404415
  0
LINE
  5
1CC0
102
{ACAD_REACTORS
330
1CC8
102
}
330
1F
100
AcDbEntity
  8
0
 62
     5
100
AcDbLine
 10
2935.612382167914
 20
2914.731415658008
 30
0.0
 11
2935.612382167914
 21
2967.731415658008
 31
0.0
  0
LINE
  5
1CC4
102
{ACAD_REACTORS
330
1CC8
102
}
330
1F
100
AcDbEntity
  8
0
 62
     5
100
AcDbLine
 10
2916.30461810387
 20
2967.731415658008
 30
0.0
 11
2935.612382167914
 21
2967.731415658008
 31
0.0
  0
LINE
  5
1CC5
102
{ACAD_REACTORS
330
1CC8
102
}
330
1F
100
AcDbEntity
  8
0
 62
     5
100
AcDbLine
 10
2916.30461810387
 20
2914.731415658008
 30
0.0
 11
2935.612382167914
 21
2914.731415658008
 31
0.0
  0
LINE
  5
1CC7
102
{ACAD_REACTORS
330
1CC8
102
}
330
1F
100
AcDbEntity
  8
0
 62
     5
100
AcDbLine
 10
2916.30461810387
 20
2914.731415658009
 30
0.0
 11
2916.30461810387
 21
2904.231415658008
 31
0.0
  0
DIMENSION
  5
1CD2
330
1F
100
AcDbEntity
  8
0
 62
     5
100
AcDbDimension
  2
*D7
 10
3382.311376922911
 20
2627.629380304996
 30
0.0
 11
3376.686376922911
 21
2651.129380304997
 31
0.0
 70
    32
 71
     5
 42
47.0
  3
ISO-25
100
AcDbAlignedDimension
 13
2969.304618103869
 23
2674.629380304996
 33
0.0
 14
2939.304288115673
 24
2627.629380304997
 34
0.0
 50
90.0
100
AcDbRotatedDimension
  0
DIMENSION
  5
1CDF
330
1F
100
AcDbEntity
  8
0
 62
     5
100
AcDbDimension
  2
*D8
 10
2939.304288115673
 20
2787.790394375112
 30
0.0
 11
2954.304453109771
 21
2793.415394375112
 31
0.0
 70
    32
 71
     5
 42
30.00032998819733
  3
ISO-25
100
AcDbAlignedDimension
 13
2969.304618103869
 23
2674.629380304996
 33
0.0
 14
2939.304288115673
 24
2626.629380304996
 34
0.0
100
AcDbRotatedDimension
  0
LWPOLYLINE
  5
1CF5
102
{ACAD_REACTORS
330
1CFA
102
}
330
1F
100
AcDbEntity
  8
0
 62
     5
100
AcDbPolyline
 90
        4
 70
     1
 43
0.0
 10
2791.304288115672
 20
2571.629380304996
 10
2816.304288115672
 20
2571.629380304996
 10
2816.304288115672
 20
2491.629380304996
 10
2791.304288115672
 20
2491.629380304996
  0
LWPOLYLINE
  5
1CF6
102
{ACAD_REACTORS
330
1CFA
102
}
330
1F
100
AcDbEntity
  8
0
 62
     5
100
AcDbPolyline
 90
        4
 70
     1
 43
0.0
 10
2942.304288115672
 20
2491.629380304996
 10
2942.304288115672
 20
2466.629380304997
 10
2791.304288115672
 20
2466.629380304997
 10
2791.304288115672
 20
2491.629380304997
  0
LWPOLYLINE
  5
1CF7
102
{ACAD_REACTORS
330
1CFA
102
}
330
1F
100
AcDbEntity
  8
0
 62
     5
100
AcDbPolyline
 90
        4
 70
     1
 43
0.0
 10
2942.304288115672
 20
2571.629380304996
 10
2917.304288115672
 20
2571.629380304996
 10
2917.304288115672
 20
2491.629380304996
 10
2942.304288115672
 20
2491.629380304996
  0
DIMENSION
  5
1D00
330
1F
100
AcDbEntity
  8
0
 62
     5
100
AcDbDimension
  2
*D9
 10
3729.304618103869
 20
1845.137322777543
 30
0.0
 11
3049.30461810387
 21
1850.762322777542
 31
0.0
 70
    32
 71
     5
 42
1360.0
  3
ISO-25
100
AcDbAlignedDimension
 13
2369.304618103869
 23
2022.391253126093
 33
0.0
 14
3729.304618103869
 24
2022.391253126093
 34
0.0
100
AcDbRotatedDimension
  0
LINE
  5
1D24
330
1F
100
AcDbEntity
  8
0
 62
     5
100
AcDbLine
 10
4806.099965049074
 20
2146.304689040034
 30
0.0
 11
4767.312956912989
 21
2201.698277397074
 31
0.0
  0
LINE
  5
1D28
330
1F
100
AcDbEntity
  8
0
 62
     5
100
AcDbLine
 10
4687.312956912989
 20
2201.698277397074
 30
0.0
 11
4648.525948776903
 21
2146.304689040034
 31
0.0
  0
LINE
  5
1D5B
330
1F
100
AcDbEntity
  8
0
 62
     5
100
AcDbLine
 10
3233.413278293823
 20
2427.086508550675
 30
0.0
 11
3413.614100419911
 21
2484.217956109471
 31
0.0
  0
LINE
  5
1D5C
330
1F
100
AcDbEntity
  8
0
 62
     5
100
AcDbLine
 10
3413.614100419911
 20
2484.217956109471
 30
0.0
 11
3576.416228242043
 21
2487.943922232101
 31
0.0
  0
LINE
  5
1D5D
330
1F
100
AcDbEntity
  8
0
 62
     5
100
AcDbLine
 10
3233.413278293823
 20
2427.086508550675
 30
0.0
 11
3255.783036207061
 21
2342.631314138528
 31
0.0
  0
LINE
  5
1D5E
330
1F
100
AcDbEntity
  8
0
 62
     5
100
AcDbLine
 10
3255.783036207061
 20
2342.631314138528
 30
0.0
 11
3407.400277990442
 21
2393.552827584805
 31
0.0
  0
LINE
  5
1D5F
330
1F
100
AcDbEntity
  8
0
 62
     5
100
AcDbLine
 10
3407.400277990442
 20
2393.552827584805
 30
0.0
 11
3572.687937617216
 21
2391.068852526018
 31
0.0
  0
LINE
  5
1D60
330
1F
100
AcDbEntity
  8
0
 62
     5
100
AcDbLine
 10
3572.687937617216
 20
2391.068852526018
 30
0.0
 11
3576.416228242043
 21
2487.943922232101
 31
0.0
  0
LINE
  5
1D86
330
1F
100
AcDbEntity
  8
0
 62
     5
100
AcDbLine
 10
4683.667546517873
 20
2121.698277397074
 30
0.0
 11
4770.958367308103
 21
2121.698277397074
 31
0.0
  0
LINE
  5
1DB4
330
1F
100
AcDbEntity
  8
0
 62
     5
100
AcDbLine
 10
4687.312956912989
 20
2281.698277397074
 30
0.0
 11
4767.312956912989
 21
2281.698277397074
 31
0.0
  0
LINE
  5
1DB5
330
1F
100
AcDbEntity
  8
0
 62
     5
100
AcDbLine
 10
4767.312956912989
 20
2281.698277397074
 30
0.0
 11
4767.312956912989
 21
2201.698277397074
 31
0.0
  0
LINE
  5
1DB7
330
1F
100
AcDbEntity
  8
0
 62
     5
100
AcDbLine
 10
4687.312956912989
 20
2281.698277397074
 30
0.0
 11
4687.312956912989
 21
2201.698277397074
 31
0.0
  0
LINE
  5
1DBA
330
1F
100
AcDbEntity
  8
0
 62
     5
100
AcDbLine
 10
4767.312956912989
 20
2201.698277397074
 30
0.0
 11
4687.312956912989
 21
2201.698277397074
 31
0.0
  0
CIRCLE
  5
1DBB
330
1F
100
AcDbEntity
  8
0
 62
     5
100
AcDbCircle
 10
4727.312956912988
 20
2241.698277397074
 30
0.0
 40
13.91148923282526
  0
CIRCLE
  5
1DC8
330
1F
100
AcDbEntity
  8
0
 62
     5
100
AcDbCircle
 10
4759.343165079479
 20
2181.698277397074
 30
0.0
 40
5.574637383945822
  0
LINE
  5
1DCB
330
1F
100
AcDbEntity
  8
0
 62
     5
100
AcDbLine
 10
4683.667546517875
 20
2121.698277397074
 30
0.0
 11
4648.525948776904
 21
2146.304689040034
 31
0.0
  0
LINE
  5
1DCD
330
1F
100
AcDbEntity
  8
0
 62
     5
100
AcDbLine
 10
4770.958367308103
 20
2121.698277397074
 30
0.0
 11
4806.099965049073
 21
2146.304689040034
 31
0.0
  0
LINE
  5
1DF7
330
1F
100
AcDbEntity
  8
0
 62
     5
100
AcDbLine
 10
4673.308806148794
 20
2181.698277397074
 30
0.0
 11
4781.317107677183
 21
2181.698277397073
 31
0.0
  0
CIRCLE
  5
1DFB
330
1F
100
AcDbEntity
  8
0
 62
     5
100
AcDbCircle
 10
4695.282748746499
 20
2181.698277397074
 30
0.0
 40
5.574637383945822
  0
LINE
  5
1DFD
330
1F
100
AcDbEntity
  8
0
 62
     5
100
AcDbLine
 10
5023.548301308085
 20
2447.380852950255
 30
0.0
 11
4943.548301308085
 21
2447.380852950255
 31
0.0
  0
LINE
  5
1DFF
330
1F
100
AcDbEntity
  8
0
 62
     5
100
AcDbLine
 10
5023.548301308085
 20
2415.380852950255
 30
0.0
 11
4943.548301308085
 21
2415.380852950255
 31
0.0
  0
LINE
  5
1E81
330
1F
100
AcDbEntity
  8
0
 62
     5
100
AcDbLine
 10
5103.548301308086
 20
2447.380852950254
 30
0.0
 11
5023.548301308085
 21
2447.380852950255
 31
0.0
  0
LINE
  5
1E85
330
1F
100
AcDbEntity
  8
0
 62
     5
100
AcDbLine
 10
4434.20695931909
 20
2146.304689040034
 30
0.0
 11
4395.419951183004
 21
2201.698277397074
 31
0.0
  0
LINE
  5
1E86
330
1F
100
AcDbEntity
  8
0
 62
     5
100
AcDbLine
 10
4315.419951183005
 20
2201.698277397074
 30
0.0
 11
4276.632943046919
 21
2146.304689040034
 31
0.0
  0
LINE
  5
1E87
330
1F
100
AcDbEntity
  8
0
 62
     5
100
AcDbLine
 10
4311.774540787889
 20
2121.698277397074
 30
0.0
 11
4399.065361578118
 21
2121.698277397074
 31
0.0
  0
LINE
  5
1E88
330
1F
100
AcDbEntity
  8
0
 62
     5
100
AcDbLine
 10
4315.419951183005
 20
2281.698277397074
 30
0.0
 11
4395.419951183004
 21
2281.698277397074
 31
0.0
  0
LINE
  5
1E89
330
1F
100
AcDbEntity
  8
0
 62
     5
100
AcDbLine
 10
4395.419951183004
 20
2281.698277397074
 30
0.0
 11
4395.419951183004
 21
2201.698277397074
 31
0.0
  0
LINE
  5
1E8A
330
1F
100
AcDbEntity
  8
0
 62
     5
100
AcDbLine
 10
4315.419951183005
 20
2281.698277397074
 30
0.0
 11
4315.419951183005
 21
2201.698277397074
 31
0.0
  0
LINE
  5
1E8B
330
1F
100
AcDbEntity
  8
0
 62
     5
100
AcDbLine
 10
4395.419951183004
 20
2201.698277397074
 30
0.0
 11
4315.419951183005
 21
2201.698277397074
 31
0.0
  0
CIRCLE
  5
1E8C
330
1F
100
AcDbEntity
  8
0
 62
     5
100
AcDbCircle
 10
4355.419951183004
 20
2241.698277397074
 30
0.0
 40
13.91148923282526
  0
LINE
  5
1E8D
102
{ACAD_REACTORS
330
1E97
102
}
330
1F
100
AcDbEntity
  8
0
 62
     5
100
AcDbLine
 10
3974.736848100809
 20
1711.665489208278
 30
0.0
 11
4318.882709911437
 21
2203.156715781673
 31
0.0
  0
LINE
  5
1E8E
102
{ACAD_REACTORS
330
1E97
102
}
330
1F
100
AcDbEntity
  8
0
 62
     5
100
AcDbLine
 10
4318.882709911437
 20
2203.156715781673
 30
0.0
 11
4345.095575328683
 21
2184.80226981844
 31
0.0
  0
LINE
  5
1E8F
102
{ACAD_REACTORS
330
1E97
102
}
330
1F
100
AcDbEntity
  8
0
 62
     5
100
AcDbLine
 10
4345.095575328683
 20
2184.80226981844
 30
0.0
 11
4000.949713518056
 21
1693.311043245045
 31
0.0
  0
LINE
  5
1E90
102
{ACAD_REACTORS
330
1E97
102
}
330
1F
100
AcDbEntity
  8
0
 62
     5
100
AcDbLine
 10
4000.949713518056
 20
1693.311043245045
 30
0.0
 11
3974.736848100809
 21
1711.665489208278
 31
0.0
  0
LINE
  5
1E91
102
{ACAD_REACTORS
330
1E97
102
}
330
1F
100
AcDbEntity
  8
0
 62
     5
100
AcDbLine
 10
4310.283310307891
 20
2190.875500378691
 30
0.0
 11
4336.496175725138
 21
2172.521054415457
 31
0.0
  0
CIRCLE
  5
1E92
330
1F
100
AcDbEntity
  8
0
 62
     5
100
AcDbCircle
 10
4387.450159349495
 20
2181.698277397074
 30
0.0
 40
5.574637383945822
  0
LINE
  5
1E93
330
1F
100
AcDbEntity
  8
0
 62
     5
100
AcDbLine
 10
4311.774540787891
 20
2121.698277397074
 30
0.0
 11
4276.63294304692
 21
2146.304689040034
 31
0.0
  0
LINE
  5
1E94
330
1F
100
AcDbEntity
  8
0
 62
     5
100
AcDbLine
 10
4399.065361578118
 20
2121.698277397074
 30
0.0
 11
4434.206959319089
 21
2146.304689040034
 31
0.0
  0
LINE
  5
1E95
330
1F
100
AcDbEntity
  8
0
 62
     5
100
AcDbLine
 10
4311.774540787889
 20
2181.698277397074
 30
0.0
 11
4399.065361578118
 21
2181.698277397074
 31
0.0
  0
CIRCLE
  5
1E96
330
1F
100
AcDbEntity
  8
0
 62
     5
100
AcDbCircle
 10
4323.389743016514
 20
2181.698277397074
 30
0.0
 40
5.574637383945822
  0
LINE
  5
1EA0
330
1F
100
AcDbEntity
  8
0
 62
     5
100
AcDbLine
 10
4687.312956912989
 20
2241.698277397074
 30
0.0
 11
4767.312956912989
 21
2241.698277397074
 31
0.0
  0
LINE
  5
1EB4
102
{ACAD_REACTORS
330
1EB9
102
}
330
1F
100
AcDbEntity
  8
0
 62
     5
100
AcDbLine
 10
4403.450159349477
 20
1596.690873080141
 30
0.0
 11
4403.450159349495
 21
2196.690873080141
 31
0.0
  0
LINE
  5
1EB5
102
{ACAD_REACTORS
330
1EB9
102
}
330
1F
100
AcDbEntity
  8
0
 62
     5
100
AcDbLine
 10
4403.450159349495
 20
2196.690873080141
 30
0.0
 11
4371.450159349495
 21
2196.690873080142
 31
0.0
  0
LINE
  5
1EB6
102
{ACAD_REACTORS
330
1EB9
102
}
330
1F
100
AcDbEntity
  8
0
 62
     5
100
AcDbLine
 10
4371.450159349495
 20
2196.690873080142
 30
0.0
 11
4371.450159349477
 21
1596.690873080142
 31
0.0
  0
LINE
  5
1EB7
102
{ACAD_REACTORS
330
1EB9
102
}
330
1F
100
AcDbEntity
  8
0
 62
     5
100
AcDbLine
 10
4371.450159349477
 20
1596.690873080142
 30
0.0
 11
4403.450159349477
 21
1596.690873080141
 31
0.0
  0
LINE
  5
1EB8
102
{ACAD_REACTORS
330
1EB9
102
}
330
1F
100
AcDbEntity
  8
0
 62
     5
100
AcDbLine
 10
4403.450159349495
 20
2181.698277397074
 30
0.0
 11
4371.450159349495
 21
2181.698277397075
 31
0.0
  0
LINE
  5
1EBA
330
1F
100
AcDbEntity
  8
0
 62
     5
100
AcDbLine
 10
4695.282748746499
 20
2191.827033478321
 30
0.0
 11
4695.282748746499
 21
2171.569521315825
 31
0.0
  0
LINE
  5
1EBB
330
1F
100
AcDbEntity
  8
0
 62
     5
100
AcDbLine
 10
4759.343165079479
 20
2191.827033478321
 30
0.0
 11
4759.343165079479
 21
2171.569521315825
 31
0.0
  0
LINE
  5
1EC6
330
1F
100
AcDbEntity
  8
0
 62
     5
100
AcDbLine
 10
4943.548301308085
 20
2447.380852950255
 30
0.0
 11
4863.548301308085
 21
2447.380852950255
 31
0.0
  0
LINE
  5
1F1C
330
1F
100
AcDbEntity
  8
0
 62
     5
100
AcDbLine
 10
5103.548301308086
 20
2447.380852950254
 30
0.0
 11
5091.919616435013
 21
2415.431303843533
 31
0.0
  0
LINE
  5
1F1D
330
1F
100
AcDbEntity
  8
0
 62
     5
100
AcDbLine
 10
5091.919616435013
 20
2415.431303843533
 30
0.0
 11
5023.548301308085
 21
2415.431303843534
 31
0.0
  0
LINE
  5
1F1E
330
1F
100
AcDbEntity
  8
0
 62
     5
100
AcDbLine
 10
5023.548301308085
 20
2447.380852950255
 30
0.0
 11
5055.497850414806
 21
2447.380852950254
 31
0.0
  0
LINE
  5
1F1F
330
1F
100
AcDbEntity
  8
0
 62
     5
100
AcDbLine
 10
5023.548301308085
 20
2447.380852950255
 30
0.0
 11
5023.548301308085
 21
2415.431303843534
 31
0.0
  0
LINE
  5
1F20
330
1F
100
AcDbEntity
  8
0
 62
     5
100
AcDbLine
 10
4863.548301308085
 20
2447.380852950255
 30
0.0
 11
4875.176986181158
 21
2415.431303843534
 31
0.0
  0
LINE
  5
1F21
330
1F
100
AcDbEntity
  8
0
 62
     5
100
AcDbLine
 10
4875.176986181158
 20
2415.431303843534
 30
0.0
 11
4943.548301308085
 21
2415.431303843534
 31
0.0
  0
LINE
  5
1F22
330
1F
100
AcDbEntity
  8
0
 62
     5
100
AcDbLine
 10
4943.548301308085
 20
2447.380852950255
 30
0.0
 11
4911.598752201364
 21
2447.380852950255
 31
0.0
  0
LINE
  5
1F23
330
1F
100
AcDbEntity
  8
0
 62
     5
100
AcDbLine
 10
4943.548301308085
 20
2447.380852950255
 30
0.0
 11
4943.548301308085
 21
2415.431303843534
 31
0.0
  0
LINE
  5
1F48
330
1F
100
AcDbEntity
  8
0
 62
     5
100
AcDbLine
 10
5103.548301308086
 20
2462.380852950253
 30
0.0
 11
5023.548301308085
 21
2462.380852950255
 31
0.0
  0
LINE
  5
1F49
330
1F
100
AcDbEntity
  8
0
 62
     5
100
AcDbLine
 10
5023.548301308085
 20
2462.380852950255
 30
0.0
 11
4943.548301308085
 21
2462.380852950255
 31
0.0
  0
LINE
  5
1F4A
330
1F
100
AcDbEntity
  8
0
 62
     5
100
AcDbLine
 10
4943.548301308085
 20
2462.380852950255
 30
0.0
 11
4863.548301308085
 21
2462.380852950255
 31
0.0
  0
LINE
  5
1F4B
330
1F
100
AcDbEntity
  8
0
 62
     5
100
AcDbLine
 10
4875.176986181158
 20
2400.431303843534
 30
0.0
 11
4943.548301308085
 21
2400.431303843534
 31
0.0
  0
LINE
  5
1F4C
330
1F
100
AcDbEntity
  8
0
 62
     5
100
AcDbLine
 10
5023.548301308085
 20
2400.380852950255
 30
0.0
 11
4943.548301308085
 21
2400.380852950255
 31
0.0
  0
LINE
  5
1F4D
330
1F
100
AcDbEntity
  8
0
 62
     5
100
AcDbLine
 10
5091.919616435013
 20
2400.431303843533
 30
0.0
 11
5023.548301308085
 21
2400.431303843534
 31
0.0
  0
LINE
  5
1F4E
330
1F
100
AcDbEntity
  8
0
 62
     5
100
AcDbLine
 10
5103.548301308086
 20
2462.380852950253
 30
0.0
 11
5103.548301308086
 21
2447.380852950254
 31
0.0
  0
LINE
  5
1F4F
330
1F
100
AcDbEntity
  8
0
 62
     5
100
AcDbLine
 10
5023.548301308085
 20
2462.380852950255
 30
0.0
 11
5023.548301308085
 21
2447.380852950255
 31
0.0
  0
LINE
  5
1F50
330
1F
100
AcDbEntity
  8
0
 62
     5
100
AcDbLine
 10
4943.548301308085
 20
2462.380852950255
 30
0.0
 11
4943.548301308085
 21
2447.380852950255
 31
0.0
  0
LINE
  5
1F51
330
1F
100
AcDbEntity
  8
0
 62
     5
100
AcDbLine
 10
4863.548301308085
 20
2462.380852950255
 30
0.0
 11
4863.548301308085
 21
2447.380852950255
 31
0.0
  0
LINE
  5
1F52
330
1F
100
AcDbEntity
  8
0
 62
     5
100
AcDbLine
 10
4875.176986181158
 20
2415.431303843534
 30
0.0
 11
4875.176986181158
 21
2400.431303843534
 31
0.0
  0
LINE
  5
1F53
330
1F
100
AcDbEntity
  8
0
 62
     5
100
AcDbLine
 10
4943.548301308085
 20
2415.380852950255
 30
0.0
 11
4943.548301308085
 21
2400.380852950255
 31
0.0
  0
LINE
  5
1F54
330
1F
100
AcDbEntity
  8
0
 62
     5
100
AcDbLine
 10
5023.548301308085
 20
2415.380852950255
 30
0.0
 11
5023.548301308085
 21
2400.380852950255
 31
0.0
  0
LINE
  5
1F55
330
1F
100
AcDbEntity
  8
0
 62
     5
100
AcDbLine
 10
5091.919616435013
 20
2415.431303843533
 30
0.0
 11
5091.919616435013
 21
2400.431303843533
 31
0.0
  0
LINE
  5
1F63
330
1F
100
AcDbEntity
  8
0
 62
     5
100
AcDbLine
 10
4687.312956912989
 20
2494.656524308676
 30
0.0
 11
4687.312956912989
 21
2426.285209181747
 31
0.0
  0
LINE
  5
1F64
330
1F
100
AcDbEntity
  8
0
 62
     5
100
AcDbLine
 10
4687.312956912989
 20
2494.656524308676
 30
0.0
 11
4767.312956912989
 21
2494.656524308676
 31
0.0
  0
CIRCLE
  5
1F65
330
1F
100
AcDbEntity
  8
0
 62
     5
100
AcDbCircle
 10
4727.312956912988
 20
2454.656524308676
 30
0.0
 40
13.91148923282526
  0
LINE
  5
1F66
330
1F
100
AcDbEntity
  8
0
 62
     5
100
AcDbLine
 10
4687.312956912989
 20
2454.656524308676
 30
0.0
 11
4767.312956912989
 21
2454.656524308676
 31
0.0
  0
LINE
  5
1F67
330
1F
100
AcDbEntity
  8
0
 62
     5
100
AcDbLine
 10
4343.255047070051
 20
2426.285209181747
 30
0.0
 11
4319.870680070975
 21
2490.53322947995
 31
0.0
  0
LINE
  5
1F69
330
1F
100
AcDbEntity
  8
0
 62
     5
100
AcDbLine
 10
4767.312956912989
 20
2426.285209181747
 30
0.0
 11
4767.312956912989
 21
2494.656524308676
 31
0.0
  0
LINE
  5
1F6B
330
1F
100
AcDbEntity
  8
0
 62
     5
100
AcDbLine
 10
4806.099965049074
 20
2370.891620824708
 30
0.0
 11
4767.312956912989
 21
2426.285209181747
 31
0.0
  0
LINE
  5
1F6C
330
1F
100
AcDbEntity
  8
0
 62
     5
100
AcDbLine
 10
4687.312956912989
 20
2426.285209181747
 30
0.0
 11
4648.525948776903
 21
2370.891620824708
 31
0.0
  0
LINE
  5
1F6D
330
1F
100
AcDbEntity
  8
0
 62
     5
100
AcDbLine
 10
4683.667546517873
 20
2346.285209181747
 30
0.0
 11
4770.958367308103
 21
2346.285209181747
 31
0.0
  0
LINE
  5
1F6E
330
1F
100
AcDbEntity
  8
0
 62
     5
100
AcDbLine
 10
4767.312956912989
 20
2426.285209181747
 30
0.0
 11
4687.312956912989
 21
2426.285209181747
 31
0.0
  0
CIRCLE
  5
1F6F
330
1F
100
AcDbEntity
  8
0
 62
     5
100
AcDbCircle
 10
4759.343165079479
 20
2406.285209181747
 30
0.0
 40
5.574637383945822
  0
LINE
  5
1F70
330
1F
100
AcDbEntity
  8
0
 62
     5
100
AcDbLine
 10
4683.667546517875
 20
2346.285209181747
 30
0.0
 11
4648.525948776904
 21
2370.891620824707
 31
0.0
  0
LINE
  5
1F71
330
1F
100
AcDbEntity
  8
0
 62
     5
100
AcDbLine
 10
4770.958367308103
 20
2346.285209181747
 30
0.0
 11
4806.099965049073
 21
2370.891620824707
 31
0.0
  0
LINE
  5
1F72
330
1F
100
AcDbEntity
  8
0
 62
     5
100
AcDbLine
 10
4673.308806148794
 20
2406.285209181748
 30
0.0
 11
4781.317107677183
 21
2406.285209181747
 31
0.0
  0
CIRCLE
  5
1F73
330
1F
100
AcDbEntity
  8
0
 62
     5
100
AcDbCircle
 10
4695.282748746499
 20
2406.285209181747
 30
0.0
 40
5.574637383945822
  0
LINE
  5
1F74
330
1F
100
AcDbEntity
  8
0
 62
     5
100
AcDbLine
 10
4695.282748746499
 20
2416.413965262995
 30
0.0
 11
4695.282748746499
 21
2396.156453100499
 31
0.0
  0
LINE
  5
1F75
330
1F
100
AcDbEntity
  8
0
 62
     5
100
AcDbLine
 10
4759.343165079479
 20
2416.413965262995
 30
0.0
 11
4759.343165079479
 21
2396.156453100499
 31
0.0
  0
LINE
  5
1F76
330
1F
100
AcDbEntity
  8
0
 62
     5
100
AcDbLine
 10
4727.312956912988
 20
2494.656524308676
 30
0.0
 11
4727.312956912988
 21
2346.285209181747
 31
0.0
  0
LINE
  5
1F77
330
1F
100
AcDbEntity
  8
0
 62
     5
100
AcDbLine
 10
4343.255047070051
 20
2426.285209181747
 30
0.0
 11
4343.255047070051
 21
2346.285209181747
 31
0.0
  0
LINE
  5
1F78
330
1F
100
AcDbEntity
  8
0
 62
     5
100
AcDbLine
 10
4727.312956912988
 20
2281.698277397074
 30
0.0
 11
4727.312956912988
 21
2201.698277397074
 31
0.0
  0
LINE
  5
1F79
330
1F
100
AcDbEntity
  8
0
 62
     5
100
AcDbLine
 10
4727.312956912988
 20
2201.698277397074
 30
0.0
 11
4727.312956912988
 21
2121.698277397074
 31
0.0
  0
LINE
  5
1F7A
330
1F
100
AcDbEntity
  8
0
 62
     5
100
AcDbLine
 10
4349.893435603998
 20
2501.46061884462
 30
0.0
 11
4377.255047070051
 21
2426.285209181747
 31
0.0
  0
LINE
  5
1F7B
330
1F
100
AcDbEntity
  8
0
 62
     5
100
AcDbLine
 10
4377.255047070051
 20
2426.285209181747
 30
0.0
 11
4377.25504707005
 21
2346.285209181747
 31
0.0
  0
LINE
  5
1F7E
330
1F
100
AcDbEntity
  8
0
 62
     5
100
AcDbLine
 10
4343.255047070051
 20
2346.285209181747
 30
0.0
 11
4377.25504707005
 21
2346.285209181747
 31
0.0
  0
LINE
  5
1F7F
330
1F
100
AcDbEntity
  8
0
 62
     5
100
AcDbLine
 10
4343.255047070051
 20
2426.285209181747
 30
0.0
 11
4377.255047070051
 21
2426.285209181747
 31
0.0
  0
LINE
  5
1F80
330
1F
100
AcDbEntity
  8
0
 62
     5
100
AcDbLine
 10
4319.870680070975
 20
2490.53322947995
 30
0.0
 11
4349.893435603998
 21
2501.46061884462
 31
0.0
  0
LINE
  5
1FBE
330
1F
100
AcDbEntity
  8
0
 62
     5
100
AcDbLine
 10
5054.89728916722
 20
2213.191945472777
 30
0.0
 11
4987.274204120633
 21
2213.191945472777
 31
0.0
  0
LINE
  5
1FBF
330
1F
100
AcDbEntity
  8
0
 62
     5
100
AcDbLine
 10
4987.274204120633
 20
2213.191945472777
 30
0.0
 11
4987.274204120633
 21
2247.191945472776
 31
0.0
  0
LINE
  5
1FC0
330
1F
100
AcDbEntity
  8
0
 62
     5
100
AcDbLine
 10
4987.274204120633
 20
2247.191945472776
 30
0.0
 11
5054.89728916722
 21
2247.191945472776
 31
0.0
  0
LINE
  5
1FC1
330
1F
100
AcDbEntity
  8
0
 62
     5
100
AcDbLine
 10
5054.89728916722
 20
2213.191945472777
 30
0.0
 11
5054.89728916722
 21
2247.191945472776
 31
0.0
  0
LINE
  5
1FC2
330
1F
100
AcDbEntity
  8
0
 62
     5
100
AcDbLine
 10
5054.89728916722
 20
2198.191945472776
 30
0.0
 11
4987.274204120633
 21
2198.191945472776
 31
0.0
  0
LINE
  5
1FC4
330
1F
100
AcDbEntity
  8
0
 62
     5
100
AcDbLine
 10
5054.89728916722
 20
2198.191945472776
 30
0.0
 11
5054.89728916722
 21
2213.191945472777
 31
0.0
  0
LINE
  5
1FC5
330
1F
100
AcDbEntity
  8
0
 62
     5
100
AcDbLine
 10
4987.274204120633
 20
2213.191945472777
 30
0.0
 11
4987.274204120633
 21
2198.191945472776
 31
0.0
  0
LINE
  5
1FC6
330
1F
100
AcDbEntity
  8
0
 62
     5
100
AcDbLine
 10
5054.89728916722
 20
2262.191945472776
 30
0.0
 11
4987.274204120633
 21
2262.191945472776
 31
0.0
  0
LINE
  5
1FC7
330
1F
100
AcDbEntity
  8
0
 62
     5
100
AcDbLine
 10
5054.89728916722
 20
2262.191945472776
 30
0.0
 11
5054.89728916722
 21
2247.191945472776
 31
0.0
  0
LINE
  5
1FC8
330
1F
100
AcDbEntity
  8
0
 62
     5
100
AcDbLine
 10
4987.274204120633
 20
2247.191945472776
 30
0.0
 11
4987.274204120633
 21
2262.191945472776
 31
0.0
  0
LINE
  5
1FC9
330
1F
100
AcDbEntity
  8
0
 62
     5
100
AcDbLine
 10
4919.651119074047
 20
2213.191945472777
 30
0.0
 11
4987.274204120633
 21
2213.191945472777
 31
0.0
  0
LINE
  5
1FCA
330
1F
100
AcDbEntity
  8
0
 62
     5
100
AcDbLine
 10
4987.274204120633
 20
2247.191945472776
 30
0.0
 11
4919.651119074047
 21
2247.191945472776
 31
0.0
  0
LINE
  5
1FCB
330
1F
100
AcDbEntity
  8
0
 62
     5
100
AcDbLine
 10
4919.651119074047
 20
2213.191945472777
 30
0.0
 11
4919.651119074047
 21
2247.191945472776
 31
0.0
  0
LINE
  5
1FCC
330
1F
100
AcDbEntity
  8
0
 62
     5
100
AcDbLine
 10
4919.651119074047
 20
2198.191945472776
 30
0.0
 11
4987.274204120633
 21
2198.191945472776
 31
0.0
  0
LINE
  5
1FCD
330
1F
100
AcDbEntity
  8
0
 62
     5
100
AcDbLine
 10
4919.651119074047
 20
2198.191945472776
 30
0.0
 11
4919.651119074047
 21
2213.191945472777
 31
0.0
  0
LINE
  5
1FCE
330
1F
100
AcDbEntity
  8
0
 62
     5
100
AcDbLine
 10
4919.651119074047
 20
2262.191945472776
 30
0.0
 11
4987.274204120633
 21
2262.191945472776
 31
0.0
  0
LINE
  5
1FCF
330
1F
100
AcDbEntity
  8
0
 62
     5
100
AcDbLine
 10
4919.651119074047
 20
2262.191945472776
 30
0.0
 11
4919.651119074047
 21
2247.191945472776
 31
0.0
  0
LINE
  5
1FD1
330
1F
100
AcDbEntity
  8
0
 62
     5
100
AcDbLine
 10
4983.548301308086
 20
2400.380852950255
 30
0.0
 11
4983.548301308086
 21
2462.380852950255
 31
0.0
  0
LINE
  5
1FE1
102
{ACAD_REACTORS
330
1FF9
330
2017
102
}
330
1F
100
AcDbEntity
  8
0
 62
     5
100
AcDbLine
 10
6714.237895498346
 20
2452.335660075027
 30
0.0
 11
6741.237895498347
 21
2452.335660075027
 31
0.0
  0
LINE
  5
1FE2
102
{ACAD_REACTORS
330
1FF9
330
2017
102
}
330
1F
100
AcDbEntity
  8
0
 62
     5
100
AcDbLine
 10
6741.237895498347
 20
2452.335660075027
 30
0.0
 11
6741.237895498347
 21
2411.335660075027
 31
0.0
  0
LINE
  5
1FE3
102
{ACAD_REACTORS
330
1FF9
330
2017
102
}
330
1F
100
AcDbEntity
  8
0
 62
     5
100
AcDbLine
 10
6741.237895498347
 20
2411.335660075027
 30
0.0
 11
6714.237895498347
 21
2411.335660075026
 31
0.0
  0
LINE
  5
1FE4
102
{ACAD_REACTORS
330
1FF9
330
2017
102
}
330
1F
100
AcDbEntity
  8
0
 62
     5
100
AcDbLine
 10
6714.237895498347
 20
2411.335660075026
 30
0.0
 11
6714.237895498346
 21
2452.335660075027
 31
0.0
  0
LWPOLYLINE
  5
1FE7
330
1F
100
AcDbEntity
  8
Calque1
100
AcDbPolyline
 90
        4
 70
     1
 43
0.0
 10
6759.39689046598
 20
2413.335660075027
 10
7005.496360486027
 20
2168.414990504626
 10
7028.069390407805
 20
2191.09666416753
 10
6781.969920387758
 20
2436.017333737931
  0
LINE
  5
1FE8
102
{ACAD_REACTORS
330
1FF9
330
2017
102
}
330
1F
100
AcDbEntity
  8
0
 62
     5
100
AcDbLine
 10
6718.237895498347
 20
2411.335660075026
 30
0.0
 11
6718.237895498346
 21
2452.335660075027
 31
0.0
  0
LINE
  5
1FEB
102
{ACAD_REACTORS
330
2017
102
}
330
1F
100
AcDbEntity
  8
0
 62
     5
100
AcDbLine
 10
6645.866580371418
 20
2411.335660075027
 30
0.0
 11
6714.237895498347
 21
2411.335660075026
 31
0.0
  0
LINE
  5
1FEC
102
{ACAD_REACTORS
330
2017
102
}
330
1F
100
AcDbEntity
  8
0
 62
     5
100
AcDbLine
 10
6645.866580371418
 20
2411.335660075027
 30
0.0
 11
6570.691170708546
 21
2383.974048608974
 31
0.0
  0
LINE
  5
1FED
102
{ACAD_REACTORS
330
2017
102
}
330
1F
100
AcDbEntity
  8
0
 62
     5
100
AcDbLine
 10
6714.237895498346
 20
2443.285209181749
 30
0.0
 11
6634.237895498348
 21
2443.285209181749
 31
0.0
  0
LINE
  5
1FEE
102
{ACAD_REACTORS
330
2017
102
}
330
1F
100
AcDbEntity
  8
0
 62
     5
100
AcDbLine
 10
6634.237895498348
 20
2443.285209181749
 30
0.0
 11
6559.062485835473
 21
2415.923597715696
 31
0.0
  0
LINE
  5
1FEF
102
{ACAD_REACTORS
330
2017
102
}
330
1F
100
AcDbEntity
  8
0
 62
     5
100
AcDbLine
 10
6570.691170708546
 20
2383.974048608974
 30
0.0
 11
6559.062485835473
 21
2415.923597715696
 31
0.0
  0
LINE
  5
1FF0
102
{ACAD_REACTORS
330
2017
102
}
330
1F
100
AcDbEntity
  8
0
 62
     5
100
AcDbLine
 10
6645.866580371418
 20
2411.335660075027
 30
0.0
 11
6634.237895498348
 21
2443.285209181749
 31
0.0
  0
LINE
  5
1FF1
102
{ACAD_REACTORS
330
2017
102
}
330
1F
100
AcDbEntity
  8
0
 62
     5
100
AcDbLine
 10
6714.237895498347
 20
2411.335660075026
 30
0.0
 11
6714.237895498346
 21
2443.285209181749
 31
0.0
  0
LINE
  5
2001
102
{ACAD_REACTORS
330
2017
102
}
330
1F
100
AcDbEntity
  8
0
 62
     5
100
AcDbLine
 10
6731.237895498347
 20
2452.335660075027
 30
0.0
 11
6731.237895498345
 21
2411.335660075026
 31
0.0
  0
CIRCLE
  5
2002
102
{ACAD_REACTORS
330
204B
102
}
330
1F
100
AcDbEntity
  8
Calque1
 62
     5
100
AcDbCircle
 10
6731.237895498347
 20
2426.335660075027
 30
0.0
 40
5.0
  0
ARC
  5
2003
102
{ACAD_REACTORS
330
204B
102
}
330
1F
100
AcDbEntity
  8
Calque1
 62
     5
100
AcDbCircle
 10
6731.237895498347
 20
2426.335660075027
 30
0.0
 40
13.00000000000044
100
AcDbArc
 50
180.0
 51
337.3801350519595
  0
LWPOLYLINE
  5
200D
330
1F
100
AcDbEntity
  8
Calque1
100
AcDbPolyline
 90
        4
 70
     1
 43
0.0
 10
6615.786063225954
 20
2435.50511369445
 10
5964.579077021315
 20
2198.485154369776
 10
5975.523721607735
 20
2168.414990504626
 10
6626.730707812374
 20
2405.434949829301
  0
LINE
  5
2042
102
{ACAD_REACTORS
330
204B
102
}
330
1F
100
AcDbEntity
  8
Calque1
 62
     5
100
AcDbLine
 10
6718.237895498347
 20
2426.335660075027
 30
0.0
 11
6718.237895498347
 21
2452.335660075027
 31
0.0
  0
LINE
  5
2043
102
{ACAD_REACTORS
330
204B
102
}
330
1F
100
AcDbEntity
  8
Calque1
 62
     5
100
AcDbLine
 10
6718.237895498347
 20
2452.335660075027
 30
0.0
 11
6765.573054128093
 21
2452.335660075027
 31
0.0
  0
LINE
  5
2044
102
{ACAD_REACTORS
330
204B
102
}
330
1F
100
AcDbEntity
  8
Calque1
 62
     5
100
AcDbLine
 10
6765.573054128093
 20
2452.335660075027
 30
0.0
 11
6781.969920387758
 21
2436.017333737931
 31
0.0
  0
LINE
  5
2045
330
1F
100
AcDbEntity
  8
Calque1
 62
     5
100
AcDbLine
 10
6781.969920387758
 20
2436.017333737931
 30
0.0
 11
6759.39689046598
 21
2413.335660075027
 31
0.0
  0
LINE
  5
2047
102
{ACAD_REACTORS
330
204B
102
}
330
1F
100
AcDbEntity
  8
Calque1
 62
     5
100
AcDbLine
 10
6759.39689046598
 20
2413.335660075027
 30
0.0
 11
6751.358386555249
 21
2421.335660075027
 31
0.0
  0
LINE
  5
204A
102
{ACAD_REACTORS
330
204B
102
}
330
1F
100
AcDbEntity
  8
Calque1
 62
     5
100
AcDbLine
 10
6751.358386555249
 20
2421.335660075027
 30
0.0
 11
6743.237895498348
 21
2421.335660075027
 31
0.0
  0
CIRCLE
  5
204C
102
{ACAD_REACTORS
330
2054
102
}
330
1F
100
AcDbEntity
  8
Calque1
100
AcDbCircle
 10
6723.295023627769
 20
2526.537065738557
 30
0.0
 40
5.0
  0
ARC
  5
204D
102
{ACAD_REACTORS
330
2054
102
}
330
1F
100
AcDbEntity
  8
Calque1
100
AcDbCircle
 10
6723.295023627769
 20
2526.537065738557
 30
0.0
 40
13.00000000000044
100
AcDbArc
 50
224.8624493061444
 51
22.24258435810405
  0
LINE
  5
204E
102
{ACAD_REACTORS
330
2054
102
}
330
1F
100
AcDbEntity
  8
Calque1
100
AcDbLine
 10
6714.080593702212
 20
2517.366772332835
 30
0.0
 11
6700.677857186157
 21
2530.834016070183
 31
0.0
  0
LINE
  5
204F
102
{ACAD_REACTORS
330
2054
102
}
330
1F
100
AcDbEntity
  8
Calque1
100
AcDbLine
 10
6700.677857186157
 20
2530.834016070183
 30
0.0
 11
6739.214622903588
 21
2569.186193187112
 31
0.0
  0
LINE
  5
2050
102
{ACAD_REACTORS
330
2054
102
}
330
1F
100
AcDbEntity
  8
Calque1
100
AcDbLine
 10
6739.214622903588
 20
2569.186193187112
 30
0.0
 11
6752.424477487593
 21
2569.186193187112
 31
0.0
  0
LINE
  5
2051
330
1F
100
AcDbEntity
  8
Calque1
100
AcDbLine
 10
6752.424477487593
 20
2569.186193187112
 30
0.0
 11
6752.424477487591
 21
2537.186193187114
 31
0.0
  0
LINE
  5
2052
102
{ACAD_REACTORS
330
2054
102
}
330
1F
100
AcDbEntity
  8
Calque1
100
AcDbLine
 10
6752.424477487591
 20
2537.186193187114
 30
0.0
 11
6741.083509930859
 21
2537.186193187112
 31
0.0
  0
LINE
  5
2053
102
{ACAD_REACTORS
330
2054
102
}
330
1F
100
AcDbEntity
  8
Calque1
100
AcDbLine
 10
6741.083509930859
 20
2537.186193187112
 30
0.0
 11
6735.327687176635
 21
2531.457940449395
 31
0.0
  0
LINE
  5
2057
330
1F
100
AcDbEntity
  8
Calque1
100
AcDbLine
 10
6752.424477487591
 20
2566.686193187113
 30
0.0
 11
6782.424477487592
 21
2566.686193187113
 31
0.0
  0
LINE
  5
2058
330
1F
100
AcDbEntity
  8
Calque1
100
AcDbLine
 10
6752.424477487593
 20
2539.686193187112
 30
0.0
 11
6782.424477487592
 21
2539.686193187112
 31
0.0
  0
LINE
  5
2059
330
1F
100
AcDbEntity
  8
Calque1
100
AcDbLine
 10
6782.424477487592
 20
2566.686193187113
 30
0.0
 11
6782.424477487592
 21
2539.686193187112
 31
0.0
  0
DIMENSION
  5
2067
330
1F
100
AcDbEntity
  8
Calque1
 62
     5
100
AcDbDimension
  2
*D12
 10
6678.26776016933
 20
2508.531261960018
 30
0.0
 11
6688.956141375912
 21
2505.76555550728
 31
0.0
 70
    32
 71
     5
 42
18.99999999999909
  3
ISO-25
100
AcDbAlignedDimension
 13
6723.295023627769
 23
2526.537065738557
 33
0.0
 14
6700.677857186157
 24
2530.834016070183
 34
0.0
 50
134.8624493061421
100
AcDbRotatedDimension
  0
DIMENSION
  5
2074
330
1F
100
AcDbEntity
  8
Calque1
 62
     5
100
AcDbDimension
  2
*D13
 10
6725.333931331665
 20
2583.133692372681
 30
0.0
 11
6701.509793736132
 21
2568.535285347747
 31
0.0
 70
    32
 71
     5
 42
54.36884955163532
  3
ISO-25
100
AcDbAlignedDimension
 13
6700.677857186157
 23
2530.834016070183
 33
0.0
 14
6739.214622903588
 24
2569.186193187112
 34
0.0
 50
44.86244930614198
100
AcDbRotatedDimension
  0
DIMENSION
  5
2081
330
1F
100
AcDbEntity
  8
Calque1
 62
     5
100
AcDbDimension
  2
*D14
 10
6782.424477487592
 20
2590.952546618696
 30
0.0
 11
6767.424477487591
 21
2590.952546618696
 31
0.0
 70
   161
 71
     5
 42
30.00000000000091
  3
ISO-25
100
AcDbAlignedDimension
 13
6752.424477487591
 23
2566.686193187113
 33
0.0
 14
6782.424477487592
 24
2566.686193187113
 34
0.0
  0
DIMENSION
  5
20A9
330
1F
100
AcDbEntity
  8
Calque1
 62
     5
100
AcDbDimension
  2
*D15
 10
6752.424477487591
 20
2495.257756505708
 30
0.0
 11
6776.382810820925
 21
2501.716089839041
 31
0.0
 70
    32
 71
     5
 42
29.57245529855117
  3
ISO-25
100
AcDbAlignedDimension
 13
6722.852022189041
 23
2526.096186247897
 33
0.0
 14
6752.424477487591
 24
2537.186193187114
 34
0.0
100
AcDbRotatedDimension
  0
DIMENSION
  5
20DC
330
1F
100
AcDbEntity
  8
Calque1
 62
     5
100
AcDbDimension
  2
*D16
 10
6831.899492155972
 20
2537.186193187114
 30
0.0
 11
6826.27449215597
 21
2553.186193187114
 31
0.0
 70
    32
 71
     5
 42
31.99999999999818
  3
ISO-25
100
AcDbAlignedDimension
 13
6752.424477487591
 23
2569.186193187112
 33
0.0
 14
6752.424477487591
 24
2537.186193187114
 34
0.0
 50
90.0
100
AcDbRotatedDimension
  0
DIMENSION
  5
20F2
330
1F
100
AcDbEntity
  8
Calque1
 62
     5
100
AcDbDimension
  2
*D17
 10
6752.424477487591
 20
2626.67308276495
 30
0.0
 11
6773.049477487592
 21
2633.131416098284
 31
0.0
 70
    32
 71
     5
 42
13.20985458400355
  3
ISO-25
100
AcDbAlignedDimension
 13
6739.214622903588
 23
2569.186193187112
 33
0.0
 14
6752.424477487591
 24
2569.186193187112
 34
0.0
100
AcDbRotatedDimension
  0
DIMENSION
  5
2100
330
1F
100
AcDbEntity
  8
Calque1
 62
     5
100
AcDbDimension
  2
*D18
 10
6705.764954023646
 20
2544.151507372069
 30
0.0
 11
6708.737394481122
 21
2555.045632340963
 31
0.0
 70
    33
 71
     5
 42
13.0
  3
ISO-25
100
AcDbAlignedDimension
 13
6714.080593702213
 23
2517.366772332834
 33
0.0
 14
6723.295023627769
 24
2526.537065738557
 34
0.0
  0
VIEWPORT
  5
177D
330
1B
100
AcDbEntity
 67
     1
  8
0
100
AcDbViewport
 10
136.5250091552734
 20
104.7749969959258
 30
0.0
 40
457.6999009184533
 41
228.4221935424804
 68
     1
 69
     1
 12
136.5250091552734
 22
104.7749969959258
 13
0.0
 23
0.0
 14
10.0
 24
10.0
 15
10.0
 25
10.0
 16
0.0
 26
0.0
 36
1.0
 17
0.0
 27
0.0
 37
0.0
 42
50.0
 43
0.0
 44
0.0
 45
228.4221935424804
 50
0.0
 51
0.0
 72
   100
 90
    32800
  1

281
     0
 71
     1
 74
     0
110
0.0
120
0.0
130
0.0
111
1.0
121
0.0
131
0.0
112
0.0
122
1.0
132
0.0
 79
     0
146
0.0
  0
VIEWPORT
  5
177F
330
1B
100
AcDbEntity
 67
     1
  8
0
100
AcDbViewport
 10
136.5250030755996
 20
104.7749954462051
 30
0.0
 40
218.4400049209595
 41
167.6399927139282
 68
     2
 69
     2
 12
1785.946174624978
 22
1753.483270931351
 13
0.0
 23
0.0
 14
10.0
 24
10.0
 15
10.0
 25
10.0
 16
0.0
 26
0.0
 36
1.0
 17
0.0
 27
0.0
 37
0.0
 42
50.0
 43
0.0
 44
0.0
 45
3739.01536290522
 50
0.0
 51
0.0
 72
   100
 90
    32832
  1

281
     0
 71
     1
 74
     0
110
0.0
120
0.0
130
0.0
111
1.0
121
0.0
131
0.0
112
0.0
122
1.0
132
0.0
 79
     0
146
0.0
  0
ENDSEC
  0
SECTION
  2
OBJECTS
  0
DICTIONARY
  5
C
330
0
100
AcDbDictionary
281
     1
  3
ACAD_GROUP
350
D
  3
ACAD_LAYOUT
350
1A
  3
ACAD_MLINESTYLE
350
17
  3
ACAD_PLOTSETTINGS
350
19
  3
ACAD_PLOTSTYLENAME
350
E
  3
AcDbVariableDictionary
350
C0
  0
DICTIONARY
  5
BE
330
1F
100
AcDbDictionary
280
     1
281
     1
  3
ACAD_SORTENTS
360
BF
  0
DICTIONARY
  5
D
102
{ACAD_REACTORS
330
C
102
}
330
C
100
AcDbDictionary
281
     1
  3
*A1
350
15A
  3
*A2
350
1A14
  3
*A3
350
1FF9
  3
*A4
350
2017
  3
*A5
350
204B
  3
*A6
350
2054
  3
*A7
350
F07
  3
*A8
350
1992
  3
*A9
350
1B1
  3
*A10
350
D56
  3
*A11
350
EA2
  3
*A12
350
1960
  3
*A13
350
1A1A
  3
*A14
350
1A1B
  3
*A15
350
12D7
  3
*A16
350
F32
  3
*A17
350
1A1C
  3
*A18
350
1919
  3
*A19
350
192D
  3
*A20
350
1369
  3
*A21
350
1D1
  3
*A22
350
6B3
  3
*A23
350
151D
  3
*A24
350
1A1E
  3
*A25
350
192F
  3
*A26
350
1930
  3
*A27
350
616
  3
*A28
350
F0E
  3
*A29
350
1507
  3
*A30
350
1165
  3
*A31
350
E24
  3
*A32
350
1932
  3
*A33
350
12E3
  3
*A34
350
12BD
  3
*A35
350
12E7
  3
*A36
350
1320
  3
*A37
350
1245
  3
*A38
350
135D
  3
*A39
350
D5A
  3
*A40
350
1505
  3
*A41
350
12F6
  3
*A42
350
165D
  3
*A43
350
14FF
  3
*A44
350
9CE
  3
*A45
350
151F
  3
*A46
350
1AEA
  3
*A47
350
1090
  3
*A48
350
1AEB
  3
*A49
350
1150
  3
*A50
350
12F3
  3
*A51
350
151E
  3
*A52
350
135A
  3
*A53
350
1321
  3
*A54
350
742
  3
*A55
350
12FF
  3
*A56
350
1368
  3
*A57
350
1B2B
  3
*A58
350
1325
  3
*A59
350
1324
  3
*A60
350
1323
  3
*A61
350
1B2C
  3
*A62
350
1151
  3
*A63
350
1667
  3
*A64
350
F0F
  3
*A65
350
1367
  3
*A66
350
F31
  3
*A67
350
12DF
  3
*A68
350
18A9
  3
*A69
350
1164
  3
*A70
350
1CBD
  3
*A71
350
277
  3
*A72
350
741
  3
*A73
350
1CC8
  3
*A74
350
A95
  3
*A75
350
1CCB
  3
*A76
350
12DB
  3
*A77
350
12FE
  3
*A78
350
12FD
  3
*A79
350
1CFA
  3
*A80
350
1322
  3
*A81
350
11E6
  3
*A82
350
1933
  3
*A83
350
1D33
  3
*A84
350
1D39
  3
*A85
350
1D4C
  3
*A86
350
F30
  3
*A87
350
1918
  3
*A88
350
192E
  3
*A89
350
1931
  3
*A90
350
1934
  3
*A91
350
198C
  3
*A92
350
1360
  3
*A93
350
1A11
  3
*A94
350
1D4D
  3
*A95
350
1D53
  3
*A96
350
1D59
  3
*A97
350
1D82
  3
*A98
350
1DC9
  3
*A99
350
1DCA
  3
*A100
350
1DE5
  3
*A101
350
1DE6
  3
*A102
350
1E97
  3
*A103
350
1EB9
  0
DICTIONARY
  5
1A
102
{ACAD_REACTORS
330
C
102
}
330
C
100
AcDbDictionary
281
     1
  3
Model
350
22
  3
Présentation1
350
1E
  3
Présentation2
350
26
  0
DICTIONARY
  5
17
102
{ACAD_REACTORS
330
C
102
}
330
C
100
AcDbDictionary
281
     1
  3
Standard
350
18
  0
DICTIONARY
  5
19
102
{ACAD_REACTORS
330
C
102
}
330
C
100
AcDbDictionary
281
     1
  0
ACDBDICTIONARYWDFLT
  5
E
102
{ACAD_REACTORS
330
C
102
}
330
C
100
AcDbDictionary
281
     1
  3
Normal
350
F
100
AcDbDictionaryWithDefault
340
F
  0
DICTIONARY
  5
C0
102
{ACAD_REACTORS
330
C
102
}
330
C
100
AcDbDictionary
281
     1
  3
SORTENTS
350
C1
  0
SORTENTSTABLE
  5
BF
102
{ACAD_REACTORS
330
BE
102
}
330
BE
100
AcDbSortentsTable
330
1F
331
B9
  5
B9
331
A7
  5
A7
331
A9
  5
A9
331
AC
  5
AC
331
AE
  5
AE
331
B0
  5
B0
331
B3
  5
B3
331
B5
  5
B5
331
B1
  5
B1
331
AF
  5
AF
331
AD
  5
AD
331
AB
  5
AB
331
AA
  5
AA
331
A8
  5
A8
331
A6
  5
A6
331
A5
  5
A5
  0
GROUP
  5
15A
102
{ACAD_REACTORS
330
D
102
}
330
D
100
AcDbGroup
300

 70
     1
 71
     1
  0
GROUP
  5
1A14
102
{ACAD_REACTORS
330
D
102
}
330
D
100
AcDbGroup
300

 70
     1
 71
     1
340
1A13
340
1A12
  0
GROUP
  5
1FF9
102
{ACAD_REACTORS
330
D
102
}
330
D
100
AcDbGroup
300

 70
     1
 71
     1
340
1FE2
340
1FE4
340
1FE8
340
1FE3
340
1FE1
  0
GROUP
  5
2017
102
{ACAD_REACTORS
330
D
102
}
330
D
100
AcDbGroup
300

 70
     1
 71
     1
340
1FED
340
1FEB
340
1FF0
340
1FEE
340
1FEF
340
1FEC
340
1FE3
340
1FF1
340
1FE4
340
1FE2
340
1FE8
340
1FE1
340
2001
  0
GROUP
  5
204B
102
{ACAD_REACTORS
330
D
102
}
330
D
100
AcDbGroup
300

 70
     1
 71
     1
340
2003
340
2002
340
2042
340
204A
340
2047
340
2044
340
2043
  0
GROUP
  5
2054
102
{ACAD_REACTORS
330
D
102
}
330
D
100
AcDbGroup
300

 70
     1
 71
     1
340
204D
340
204C
340
204E
340
2053
340
2052
340
2050
340
204F
  0
GROUP
  5
F07
102
{ACAD_REACTORS
330
D
102
}
330
D
100
AcDbGroup
300

 70
     1
 71
     1
  0
GROUP
  5
1992
102
{ACAD_REACTORS
330
D
102
}
330
D
100
AcDbGroup
300

 70
     1
 71
     1
340
1991
340
198D
340
198E
340
1990
  0
GROUP
  5
1B1
102
{ACAD_REACTORS
330
D
102
}
330
D
100
AcDbGroup
300

 70
     1
 71
     1
  0
GROUP
  5
D56
102
{ACAD_REACTORS
330
D
102
}
330
D
100
AcDbGroup
300

 70
     1
 71
     1
340
C7A
340
C79
340
C64
340
C5C
340
C5B
340
C7C
340
C7B
340
C61
340
C68
340
C6A
340
C7D
340
C7E
340
C69
340
C5D
340
C80
340
C62
340
C63
340
C7F
340
C65
340
C66
340
C5A
340
C60
340
C5E
340
C5F
340
C67
  0
GROUP
  5
EA2
102
{ACAD_REACTORS
330
D
102
}
330
D
100
AcDbGroup
300

 70
     1
 71
     1
  0
GROUP
  5
1960
102
{ACAD_REACTORS
330
D
102
}
330
D
100
AcDbGroup
300

 70
     1
 71
     1
340
195C
340
195B
340
195A
340
1956
340
1957
340
1959
340
1955
340
195F
  0
GROUP
  5
1A1A
102
{ACAD_REACTORS
330
D
102
}
330
D
100
AcDbGroup
300

 70
     1
 71
     1
340
1A17
340
1A16
  0
GROUP
  5
1A1B
102
{ACAD_REACTORS
330
D
102
}
330
D
100
AcDbGroup
300

 70
     1
 71
     1
340
1A19
340
1A18
  0
GROUP
  5
12D7
102
{ACAD_REACTORS
330
D
102
}
330
D
100
AcDbGroup
300

 70
     1
 71
     1
  0
GROUP
  5
F32
102
{ACAD_REACTORS
330
D
102
}
330
D
100
AcDbGroup
300

 70
     1
 71
     1
  0
GROUP
  5
1A1C
102
{ACAD_REACTORS
330
D
102
}
330
D
100
AcDbGroup
300

 70
     1
 71
     1
340
1A16
340
1A17
340
1A18
340
1A19
340
1A12
340
1A13
340
1A0F
340
1A10
340
1525
340
1510
340
1524
340
1523
340
1512
340
150E
340
150C
340
1527
340
1522
340
1521
340
1528
340
1529
340
150D
340
1514
  0
GROUP
  5
1919
102
{ACAD_REACTORS
330
D
102
}
330
D
100
AcDbGroup
300

 70
     1
 71
     1
340
123A
340
1366
340
1365
340
1364
340
1363
340
1362
340
1361
340
135F
340
135E
340
135C
340
135B
340
1359
340
1358
340
1349
340
1348
340
12B3
340
134A
  0
GROUP
  5
192D
102
{ACAD_REACTORS
330
D
102
}
330
D
100
AcDbGroup
300

 70
     1
 71
     1
340
191A
340
192C
340
192B
340
192A
340
1929
340
1928
340
1927
340
1926
340
1925
340
1924
340
1923
340
1922
340
1921
340
191F
340
191E
340
191D
340
1920
  0
GROUP
  5
1369
102
{ACAD_REACTORS
330
D
102
}
330
D
100
AcDbGroup
300

 70
     1
 71
     1
340
1366
340
1365
  0
GROUP
  5
1D1
102
{ACAD_REACTORS
330
D
102
}
330
D
100
AcDbGroup
300

 70
     1
 71
     1
340
1C1
340
1BF
340
1C6
340
1C7
340
1C4
340
1C3
340
1C2
  0
GROUP
  5
6B3
102
{ACAD_REACTORS
330
D
102
}
330
D
100
AcDbGroup
300

 70
     1
 71
     1
340
6AC
340
627
340
62B
340
6B0
340
62F
340
62C
340
637
340
6AD
340
6AF
340
6B1
340
6AE
340
6B2
340
628
340
699
340
62D
340
6AB
340
629
  0
GROUP
  5
151D
102
{ACAD_REACTORS
330
D
102
}
330
D
100
AcDbGroup
300

 70
     1
 71
     1
  0
GROUP
  5
1A1E
102
{ACAD_REACTORS
330
D
102
}
330
D
100
AcDbGroup
300

 70
     1
 71
     1
340
19FE
340
1911
340
1916
340
1915
340
1913
340
1917
340
1914
340
1912
340
1910
340
190F
340
1A1D
  0
GROUP
  5
192F
102
{ACAD_REACTORS
330
D
102
}
330
D
100
AcDbGroup
300

 70
     1
 71
     1
340
1924
340
1923
  0
GROUP
  5
1930
102
{ACAD_REACTORS
330
D
102
}
330
D
100
AcDbGroup
300

 70
     1
 71
     1
340
1926
340
1925
  0
GROUP
  5
616
102
{ACAD_REACTORS
330
D
102
}
330
D
100
AcDbGroup
300

 70
     1
 71
     1
  0
GROUP
  5
F0E
102
{ACAD_REACTORS
330
D
102
}
330
D
100
AcDbGroup
300

 70
     1
 71
     1
  0
GROUP
  5
1507
102
{ACAD_REACTORS
330
D
102
}
330
D
100
AcDbGroup
300

 70
     1
 71
     1
  0
GROUP
  5
1165
102
{ACAD_REACTORS
330
D
102
}
330
D
100
AcDbGroup
300

 70
     1
 71
     1
340
115D
340
1156
340
115E
340
1154
340
115F
340
115C
340
1157
340
1153
340
1163
340
1162
340
1161
340
1160
340
115A
340
1152
340
115B
340
1158
340
1159
340
1155
  0
GROUP
  5
E24
102
{ACAD_REACTORS
330
D
102
}
330
D
100
AcDbGroup
300

 70
     1
 71
     1
  0
GROUP
  5
1932
102
{ACAD_REACTORS
330
D
102
}
330
D
100
AcDbGroup
300

 70
     1
 71
     1
340
192A
340
1929
  0
GROUP
  5
12E3
102
{ACAD_REACTORS
330
D
102
}
330
D
100
AcDbGroup
300

 70
     1
 71
     1
  0
GROUP
  5
12BD
102
{ACAD_REACTORS
330
D
102
}
330
D
100
AcDbGroup
300

 70
     1
 71
     1
  0
GROUP
  5
12E7
102
{ACAD_REACTORS
330
D
102
}
330
D
100
AcDbGroup
300

 70
     1
 71
     1
  0
GROUP
  5
1320
102
{ACAD_REACTORS
330
D
102
}
330
D
100
AcDbGroup
300

 70
     1
 71
     1
  0
GROUP
  5
1245
102
{ACAD_REACTORS
330
D
102
}
330
D
100
AcDbGroup
300

 70
     1
 71
     1
  0
GROUP
  5
135D
102
{ACAD_REACTORS
330
D
102
}
330
D
100
AcDbGroup
300

 70
     1
 71
     1
340
135C
340
135B
  0
GROUP
  5
D5A
102
{ACAD_REACTORS
330
D
102
}
330
D
100
AcDbGroup
300

 70
     1
 71
     1
340
AC2
340
AD2
340
ACD
340
ACB
340
A08
340
A07
340
AD3
340
AD4
340
AD5
340
ADA
340
ADD
340
AD9
340
AD7
340
AC5
340
ACE
340
ADE
340
AD8
340
AC4
340
AC3
340
ACF
340
AD0
340
AD1
340
ACC
340
AC1
340
AC0
340
ABF
340
ACA
340
AD6
  0
GROUP
  5
1505
102
{ACAD_REACTORS
330
D
102
}
330
D
100
AcDbGroup
300

 70
     1
 71
     1
  0
GROUP
  5
12F6
102
{ACAD_REACTORS
330
D
102
}
330
D
100
AcDbGroup
300

 70
     1
 71
     1
  0
GROUP
  5
165D
102
{ACAD_REACTORS
330
D
102
}
330
D
100
AcDbGroup
300

 70
     1
 71
     1
  0
GROUP
  5
14FF
102
{ACAD_REACTORS
330
D
102
}
330
D
100
AcDbGroup
300

 70
     1
 71
     1
  0
GROUP
  5
9CE
102
{ACAD_REACTORS
330
D
102
}
330
D
100
AcDbGroup
300

 70
     1
 71
     1
  0
GROUP
  5
151F
102
{ACAD_REACTORS
330
D
102
}
330
D
100
AcDbGroup
300

 70
     1
 71
     1
  0
GROUP
  5
1AEA
102
{ACAD_REACTORS
330
D
102
}
330
D
100
AcDbGroup
300

 70
     1
 71
     1
340
1A98
340
1068
340
1A97
340
105C
340
E1D
340
ECE
340
ECF
340
E26
340
1061
340
E22
340
105F
340
1064
340
105B
340
E29
340
F4E
340
E1B
340
1062
340
1063
340
105D
340
105E
340
105A
340
1059
340
E1E
340
E20
340
E1A
340
E28
340
E19
340
E27
340
E23
340
1060
340
FBD
340
1066
340
1AE8
340
1067
340
1065
340
1058
340
FAF
340
101B
340
E18
340
F4F
340
FCD
  0
GROUP
  5
1090
102
{ACAD_REACTORS
330
D
102
}
330
D
100
AcDbGroup
300

 70
     1
 71
     1
  0
GROUP
  5
1AEB
102
{ACAD_REACTORS
330
D
102
}
330
D
100
AcDbGroup
300

 70
     1
 71
     1
340
1AA3
340
1AB8
340
1AAD
340
1AAC
340
1AC6
340
1AC5
340
1AC4
340
1AAE
340
1AB9
340
1AA4
340
1AC2
340
1AB1
340
1AC3
340
1AB3
340
1AE9
340
1AAF
340
1AB2
  0
GROUP
  5
1150
102
{ACAD_REACTORS
330
D
102
}
330
D
100
AcDbGroup
300

 70
     1
 71
     1
340
1146
340
113E
340
1144
340
1147
340
1142
340
114B
340
1149
340
1143
340
1145
340
1140
340
1148
340
114A
340
113F
340
1141
  0
GROUP
  5
12F3
102
{ACAD_REACTORS
330
D
102
}
330
D
100
AcDbGroup
300

 70
     1
 71
     1
  0
GROUP
  5
151E
102
{ACAD_REACTORS
330
D
102
}
330
D
100
AcDbGroup
300

 70
     1
 71
     1
  0
GROUP
  5
135A
102
{ACAD_REACTORS
330
D
102
}
330
D
100
AcDbGroup
300

 70
     1
 71
     1
340
1359
340
1358
  0
GROUP
  5
1321
102
{ACAD_REACTORS
330
D
102
}
330
D
100
AcDbGroup
300

 70
     1
 71
     1
  0
GROUP
  5
742
102
{ACAD_REACTORS
330
D
102
}
330
D
100
AcDbGroup
300

 70
     1
 71
     1
  0
GROUP
  5
12FF
102
{ACAD_REACTORS
330
D
102
}
330
D
100
AcDbGroup
300

 70
     1
 71
     1
  0
GROUP
  5
1368
102
{ACAD_REACTORS
330
D
102
}
330
D
100
AcDbGroup
300

 70
     1
 71
     1
340
1364
340
1363
  0
GROUP
  5
1B2B
102
{ACAD_REACTORS
330
D
102
}
330
D
100
AcDbGroup
300

 70
     1
 71
     1
  0
GROUP
  5
1325
102
{ACAD_REACTORS
330
D
102
}
330
D
100
AcDbGroup
300

 70
     1
 71
     1
  0
GROUP
  5
1324
102
{ACAD_REACTORS
330
D
102
}
330
D
100
AcDbGroup
300

 70
     1
 71
     1
  0
GROUP
  5
1323
102
{ACAD_REACTORS
330
D
102
}
330
D
100
AcDbGroup
300

 70
     1
 71
     1
  0
GROUP
  5
1B2C
102
{ACAD_REACTORS
330
D
102
}
330
D
100
AcDbGroup
300

 70
     1
 71
     1
  0
GROUP
  5
1151
102
{ACAD_REACTORS
330
D
102
}
330
D
100
AcDbGroup
300

 70
     1
 71
     1
340
1149
340
1142
340
114A
340
1140
340
114B
340
1148
340
1143
340
113F
340
114F
340
114E
340
114D
340
114C
340
1146
340
113E
340
1147
340
1144
340
1145
340
1141
  0
GROUP
  5
1667
102
{ACAD_REACTORS
330
D
102
}
330
D
100
AcDbGroup
300

 70
     1
 71
     1
  0
GROUP
  5
F0F
102
{ACAD_REACTORS
330
D
102
}
330
D
100
AcDbGroup
300

 70
     1
 71
     1
  0
GROUP
  5
1367
102
{ACAD_REACTORS
330
D
102
}
330
D
100
AcDbGroup
300

 70
     1
 71
     1
340
1362
340
1361
  0
GROUP
  5
F31
102
{ACAD_REACTORS
330
D
102
}
330
D
100
AcDbGroup
300

 70
     1
 71
     1
  0
GROUP
  5
12DF
102
{ACAD_REACTORS
330
D
102
}
330
D
100
AcDbGroup
300

 70
     1
 71
     1
  0
GROUP
  5
18A9
102
{ACAD_REACTORS
330
D
102
}
330
D
100
AcDbGroup
300

 70
     1
 71
     1
340
189F
340
18A7
340
18A3
340
18A4
340
18A2
  0
GROUP
  5
1164
102
{ACAD_REACTORS
330
D
102
}
330
D
100
AcDbGroup
300

 70
     1
 71
     1
340
115A
340
1152
340
1158
340
115B
340
1156
340
115F
340
115D
340
1157
340
1159
340
1154
340
115C
340
115E
340
1153
340
1155
  0
GROUP
  5
1CBD
102
{ACAD_REACTORS
330
D
102
}
330
D
100
AcDbGroup
300

 70
     1
 71
     1
340
1CB5
340
1CB4
340
1CB3
340
1CB8
340
1CB2
340
1CB1
  0
GROUP
  5
277
102
{ACAD_REACTORS
330
D
102
}
330
D
100
AcDbGroup
300

 70
     1
 71
     1
  0
GROUP
  5
741
102
{ACAD_REACTORS
330
D
102
}
330
D
100
AcDbGroup
300

 70
     1
 71
     1
  0
GROUP
  5
1CC8
102
{ACAD_REACTORS
330
D
102
}
330
D
100
AcDbGroup
300

 70
     1
 71
     1
340
1C79
340
1C76
340
1CC5
340
1CC4
340
1C77
340
1CC7
340
1CC0
340
1C78
  0
GROUP
  5
A95
102
{ACAD_REACTORS
330
D
102
}
330
D
100
AcDbGroup
300

 70
     1
 71
     1
340
A73
340
A51
340
A5E
340
A74
340
A59
340
A94
340
A92
340
A5C
340
A72
340
A57
340
A75
340
A93
340
A55
340
A58
  0
GROUP
  5
1CCB
102
{ACAD_REACTORS
330
D
102
}
330
D
100
AcDbGroup
300

 70
     1
 71
     1
340
1CAD
340
1CAC
340
1CB0
340
1CA9
340
1CAF
340
1CAB
  0
GROUP
  5
12DB
102
{ACAD_REACTORS
330
D
102
}
330
D
100
AcDbGroup
300

 70
     1
 71
     1
  0
GROUP
  5
12FE
102
{ACAD_REACTORS
330
D
102
}
330
D
100
AcDbGroup
300

 70
     1
 71
     1
  0
GROUP
  5
12FD
102
{ACAD_REACTORS
330
D
102
}
330
D
100
AcDbGroup
300

 70
     1
 71
     1
  0
GROUP
  5
1CFA
102
{ACAD_REACTORS
330
D
102
}
330
D
100
AcDbGroup
300

 70
     1
 71
     1
340
1CF5
340
1CF6
340
1CF7
  0
GROUP
  5
1322
102
{ACAD_REACTORS
330
D
102
}
330
D
100
AcDbGroup
300

 70
     1
 71
     1
  0
GROUP
  5
11E6
102
{ACAD_REACTORS
330
D
102
}
330
D
100
AcDbGroup
300

 70
     1
 71
     1
  0
GROUP
  5
1933
102
{ACAD_REACTORS
330
D
102
}
330
D
100
AcDbGroup
300

 70
     1
 71
     1
340
192C
340
192B
  0
GROUP
  5
1D33
102
{ACAD_REACTORS
330
D
102
}
330
D
100
AcDbGroup
300

 70
     1
 71
     1
  0
GROUP
  5
1D39
102
{ACAD_REACTORS
330
D
102
}
330
D
100
AcDbGroup
300

 70
     1
 71
     1
  0
GROUP
  5
1D4C
102
{ACAD_REACTORS
330
D
102
}
330
D
100
AcDbGroup
300

 70
     1
 71
     1
  0
GROUP
  5
F30
102
{ACAD_REACTORS
330
D
102
}
330
D
100
AcDbGroup
300

 70
     1
 71
     1
  0
GROUP
  5
1918
102
{ACAD_REACTORS
330
D
102
}
330
D
100
AcDbGroup
300

 70
     1
 71
     1
340
1916
340
1915
340
1911
340
1913
340
1917
340
1914
340
1912
340
1910
340
190F
  0
GROUP
  5
192E
102
{ACAD_REACTORS
330
D
102
}
330
D
100
AcDbGroup
300

 70
     1
 71
     1
340
1922
340
1921
  0
GROUP
  5
1931
102
{ACAD_REACTORS
330
D
102
}
330
D
100
AcDbGroup
300

 70
     1
 71
     1
340
1928
340
1927
  0
GROUP
  5
1934
102
{ACAD_REACTORS
330
D
102
}
330
D
100
AcDbGroup
300

 70
     1
 71
     1
340
1510
340
1524
340
1523
340
1512
340
150E
340
150C
340
1527
340
1525
340
1522
340
1521
340
1528
340
1529
340
150D
340
1514
  0
GROUP
  5
198C
102
{ACAD_REACTORS
330
D
102
}
330
D
100
AcDbGroup
300

 70
     1
 71
     1
340
1989
340
197A
340
1979
340
1971
340
1972
340
1974
340
198B
  0
GROUP
  5
1360
102
{ACAD_REACTORS
330
D
102
}
330
D
100
AcDbGroup
300

 70
     1
 71
     1
340
135F
340
135E
  0
GROUP
  5
1A11
102
{ACAD_REACTORS
330
D
102
}
330
D
100
AcDbGroup
300

 70
     1
 71
     1
340
1A10
340
1A0F
  0
GROUP
  5
1D4D
102
{ACAD_REACTORS
330
D
102
}
330
D
100
AcDbGroup
300

 70
     1
 71
     1
  0
GROUP
  5
1D53
102
{ACAD_REACTORS
330
D
102
}
330
D
100
AcDbGroup
300

 70
     1
 71
     1
  0
GROUP
  5
1D59
102
{ACAD_REACTORS
330
D
102
}
330
D
100
AcDbGroup
300

 70
     1
 71
     1
  0
GROUP
  5
1D82
102
{ACAD_REACTORS
330
D
102
}
330
D
100
AcDbGroup
300

 70
     1
 71
     1
  0
GROUP
  5
1DC9
102
{ACAD_REACTORS
330
D
102
}
330
D
100
AcDbGroup
300

 70
     1
 71
     1
  0
GROUP
  5
1DCA
102
{ACAD_REACTORS
330
D
102
}
330
D
100
AcDbGroup
300

 70
     1
 71
     1
  0
GROUP
  5
1DE5
102
{ACAD_REACTORS
330
D
102
}
330
D
100
AcDbGroup
300

 70
     1
 71
     1
  0
GROUP
  5
1DE6
102
{ACAD_REACTORS
330
D
102
}
330
D
100
AcDbGroup
300

 70
     1
 71
     1
  0
GROUP
  5
1E97
102
{ACAD_REACTORS
330
D
102
}
330
D
100
AcDbGroup
300

 70
     1
 71
     1
340
1E8D
340
1E8F
340
1E91
340
1E8E
340
1E90
  0
GROUP
  5
1EB9
102
{ACAD_REACTORS
330
D
102
}
330
D
100
AcDbGroup
300

 70
     1
 71
     1
340
1EB4
340
1EB6
340
1EB8
340
1EB5
340
1EB7
  0
LAYOUT
  5
22
102
{ACAD_REACTORS
330
1A
102
}
330
1A
100
AcDbPlotSettings
  1

  2
EPSON WF-2530 Series
  4
A4
  6

 40
3.174999952316284
 41
3.174999952316284
 42
3.175003051757812
 43
3.17498779296875
 44
210.0
 45
297.0
 46
26.08999999999999
 47
50.59000000000001
 48
4785.834696464118
 49
2347.245501306097
140
4975.298128147167
141
2498.716129532675
142
1.0
143
1.0
 70
 11956
 72
     1
 73
     1
 74
     4
  7

 75
    16
147
1.0
148
-4785.834696464118
149
-2347.245501306097
100
AcDbLayout
  1
Model
 70
     1
 71
     0
 10
0.0
 20
0.0
 11
12.0
 21
9.0
 12
0.0
 22
0.0
 32
0.0
 14
0.0
 24
0.0
 34
0.0
 15
0.0
 25
0.0
 35
0.0
146
0.0
 13
0.0
 23
0.0
 33
0.0
 16
1.0
 26
0.0
 36
0.0
 17
0.0
 27
1.0
 37
0.0
 76
     0
330
1F
  0
LAYOUT
  5
1E
102
{ACAD_REACTORS
330
1A
102
}
330
1A
100
AcDbPlotSettings
  1

  2
Microsoft XPS Document Writer
  4
Letter
  6

 40
3.174999952316284
 41
3.174999952316284
 42
3.175003051757812
 43
3.17498779296875
 44
215.8999938964843
 45
279.3999938964843
 46
0.0
 47
0.0
 48
0.0
 49
0.0
140
0.0
141
0.0
142
1.0
143
1.0
 70
   688
 72
     1
 73
     1
 74
     5
  7

 75
    16
147
1.0
148
0.0
149
0.0
100
AcDbLayout
  1
Présentation1
 70
     1
 71
     1
 10
-3.17498779296875
 20
-3.174999952316284
 11
276.2250061035156
 21
212.724993944168
 12
0.0
 22
0.0
 32
0.0
 14
27.30500061511992
 24
20.95499908924102
 34
0.0
 15
245.7450055360794
 25
188.5949918031692
 35
0.0
146
0.0
 13
0.0
 23
0.0
 33
0.0
 16
1.0
 26
0.0
 36
0.0
 17
0.0
 27
1.0
 37
0.0
 76
     0
330
1B
331
177D
  0
LAYOUT
  5
26
102
{ACAD_REACTORS
330
1A
102
}
330
1A
100
AcDbPlotSettings
  1

  2
Microsoft XPS Document Writer
  4

  6

 40
0.0
 41
0.0
 42
0.0
 43
0.0
 44
0.0
 45
0.0
 46
0.0
 47
0.0
 48
0.0
 49
0.0
140
0.0
141
0.0
142
1.0
143
1.0
 70
   688
 72
     0
 73
     0
 74
     5
  7

 75
    16
147
1.0
148
0.0
149
0.0
100
AcDbLayout
  1
Présentation2
 70
     1
 71
     2
 10
0.0
 20
0.0
 11
12.0
 21
9.0
 12
0.0
 22
0.0
 32
0.0
 14
0.0
 24
0.0
 34
0.0
 15
0.0
 25
0.0
 35
0.0
146
0.0
 13
0.0
 23
0.0
 33
0.0
 16
1.0
 26
0.0
 36
0.0
 17
0.0
 27
1.0
 37
0.0
 76
     0
330
23
  0
MLINESTYLE
  5
18
102
{ACAD_REACTORS
330
17
102
}
330
17
100
AcDbMlineStyle
  2
STANDARD
 70
     0
  3

 62
   256
 51
90.0
 52
90.0
 71
     2
 49
0.5
 62
   256
  6
BYLAYER
 49
-0.5
 62
   256
  6
BYLAYER
  0
ACDBPLACEHOLDER
  5
F
102
{ACAD_REACTORS
330
E
102
}
330
E
  0
DICTIONARYVAR
  5
C1
102
{ACAD_REACTORS
330
C0
102
}
330
C0
100
DictionaryVariables
280
     0
  1
112
  0
ENDSEC
  0
EOF
